Вы используете незарегистрированную версию компонента "Вкладки"!

Поиск

(Free Improvisation, EAI) Greg Kelley / Olivia Block - Resolution - 2011, FLAC (tracks+.cue), lossless

(Free Improvisation, EAI) Greg Kelley / Olivia Block - Resolution - 2011, FLAC (tracks+.cue), lossless
Треклист:
Greg Kelley / Olivia Block / Resolution
Жанр: Free Improvisation, EAI
Страна-производитель диска: США
Год издания диска: 2011
Издатель (лейбл): Erstwhile Records
Номер по каталогу: erstwhile 063
Страна: США
Аудиокодек: FLAC (*.flac)
Тип рипа: tracks+.cue
Битрейт аудио: lossless
Продолжительность: 46:17
Источник (релизер): вот.сиди (dashdash1)
Наличие сканов в содержимом раздачи: да
Треклист:
1. Pinholed and perpetual light, part 1
2. Looking through bone
3. How much radiance can you stand
4. Some old slapstick routine
5. Pinholed and perpetual light, part 2
Recorded at Experimental Sound Studio, Chicago in August 2010
 
Лог создания рипа
Exact Audio Copy V1.0 beta 3 from 29. August 2011
EAC extraction logfile from 2. March 2012, 20:36
Greg Kelley / Olivia Block / Resolution
Used drive : Optiarc DVD RW AD-7585H Adapter: 0 ID: 1
Read mode : Secure
Utilize accurate stream : Yes
Defeat audio cache : Yes
Make use of C2 pointers : No
Read offset correction : 6
Overread into Lead-In and Lead-Out : No
Fill up missing offset samples with silence : Yes
Delete leading and trailing silent blocks : No
Null samples used in CRC calculations : Yes
Used interface : Native Win32 interface for Win NT & 2000
Gap handling : Appended to previous track
Used output format : User Defined Encoder
Selected bitrate : 128 kBit/s
Quality : High
Add ID3 tag : No
Command line compressor : C:\Program Files (x86)\Exact Audio Copy\Flac\flac.exe
Additional command line options : -8 -V -T "ARTIST=%artist%" -T "TITLE=%title%" -T "ALBUM=%albumtitle%" -T "DATE=%year%" -T "TRACKNUMBER=%tracknr%" -T "GENRE=%genre%" -T "PERFORMER=%albuminterpret%" -T "COMPOSER=%composer%" %haslyrics%--tag-from-file=LYRICS="%lyricsfile%"%haslyrics% -T "ALBUMARTIST=%albumartist%" -T "DISCNUMBER=%cdnumber%" -T "TOTALDISCS=%totalcds%" -T "TOTALTRACKS=%numtracks%" -T "COMMENT=EAC V1.0 beta 3, Secure Mode, Test & Copy, AccurateRip, FLAC -8" %source% -o %dest%
TOC of the extracted CD
Track | Start | Length | Start sector | End sector
---------------------------------------------------------
1 | 0:00.00 | 11:11.66 | 0 | 50390
2 | 11:11.66 | 9:26.37 | 50391 | 92877
3 | 20:38.28 | 8:08.43 | 92878 | 129520
4 | 28:46.71 | 8:22.62 | 129521 | 167232
5 | 37:09.58 | 9:06.58 | 167233 | 208240
Track 1
Filename C:\EAC Rips\01 - Pinholed and perpetual light, part 1.wav
Pre-gap length 0:00:02.00
Peak level 99.9 %
Extraction speed 1.2 X
Track quality 100.0 %
Test CRC 7FBCCB56
Copy CRC 7FBCCB56
Track not present in AccurateRip database
Copy OK
Track 2
Filename C:\EAC Rips\02 - Looking through bone.wav
Pre-gap length 0:00:02.00
Peak level 96.6 %
Extraction speed 1.5 X
Track quality 100.0 %
Test CRC 258C9429
Copy CRC 258C9429
Track not present in AccurateRip database
Copy OK
Track 3
Filename C:\EAC Rips\03 - How much radiance can you stand.wav
Pre-gap length 0:00:02.00
Peak level 90.1 %
Extraction speed 1.7 X
Track quality 100.0 %
Test CRC AEF212E2
Copy CRC AEF212E2
Track not present in AccurateRip database
Copy OK
Track 4
Filename C:\EAC Rips\04 - Some old slapstick routine.wav
Pre-gap length 0:00:02.00
Peak level 100.0 %
Extraction speed 1.9 X
Track quality 100.0 %
Test CRC C0537052
Copy CRC C0537052
Track not present in AccurateRip database
Copy OK
Track 5
Filename C:\EAC Rips\05 - Pinholed and perpetual light, part 2.wav
Pre-gap length 0:00:02.00
Peak level 99.9 %
Extraction speed 2.0 X
Track quality 99.9 %
Test CRC 1CE75877
Copy CRC 1CE75877
Track not present in AccurateRip database
Copy OK
None of the tracks are present in the AccurateRip database
No errors occurred
End of status report
---- CUETools DB Plugin V2.1.3
[CTDB TOCID: eNoTavEbzTKpOkrN9HmQzJ_AkMI-] found, Submit result: eNoTavEbzTKpOkrN9HmQzJ_AkMI- has been confirmed
[424b047a] (1/1) Accurately ripped
==== Log checksum 3B6EE648A7C3306C95E20EC07E078E9788F3CA4C420ECD2263CCC19C3E94532E ====
 
Содержание индексной карты (.CUE)
REM GENRE Experimental
REM DATE 2011
REM DISCID 330AD805
REM COMMENT "ExactAudioCopy v1.0b3"
FILE "01 - Pinholed and perpetual light, part 1.wav" WAVE
TRACK 01 AUDIO
INDEX 01 00:00:00
TRACK 02 AUDIO
INDEX 00 11:09:66
FILE "02 - Looking through bone.wav" WAVE
INDEX 01 00:00:00
TRACK 03 AUDIO
INDEX 00 09:24:37
FILE "03 - How much radiance can you stand.wav" WAVE
INDEX 01 00:00:00
TRACK 04 AUDIO
INDEX 00 08:06:43
FILE "04 - Some old slapstick routine.wav" WAVE
INDEX 01 00:00:00
TRACK 05 AUDIO
INDEX 00 08:20:62
FILE "05 - Pinholed and perpetual light, part 2.wav" WAVE
INDEX 01 00:00:00
 
Лог проверки качества
AUDIOCHECKER v2.0 beta (build 457) - by Dester - opdester@freemail.hu
~~~~~~~~~~~~~~~~~~~~~~~~~~~~~~~~~~
-=== DO NOT EDIT THIS FILE! ===-
Path: ...\Greg Kelley - Olivia Block - Resolution (2011) [FLAC] {erstwhile 063}
1 -=- 01 - Pinholed and perpetual light, part 1.flac -=- CDDA (100%)
2 -=- 02 - Looking through bone.flac -=- CDDA (100%)
3 -=- 03 - How much radiance can you stand.flac -=- CDDA (100%)
4 -=- 04 - Some old slapstick routine.flac -=- CDDA (100%)
5 -=- 05 - Pinholed and perpetual light, part 2.flac -=- CDDA (100%)
Summary 100,00% CDDA
131373268
 
Состав
Greg Kelley trumpet
Olivia Block electronics, piano
Any questions -> support@pro-jazz.com. По всем вопросам пишите -> support@pro-jazz.com
22:43
141
Нет комментариев. Ваш будет первым!