Вы используете незарегистрированную версию компонента "Вкладки"!

Поиск

(Contemporary Jazz, Free Jazz) Happy Apple - Коллекция (3 альбома) - 2001-2005, FLAC (tracks+.cue), lossless

(Contemporary Jazz, Free Jazz) Happy Apple - Коллекция (3 альбома) - 2001-2005, FLAC (tracks+.cue), lossless
Треклист:
Happy Apple / Коллекция (3 альбома)
Жанр: Contemporary Jazz, Free Jazz
Год издания диска: 2001-2005
Страна: USA
Аудиокодек: FLAC (*.flac)
Тип рипа: tracks+.cue
Битрейт аудио: lossless
Продолжительность: 206:20 (67:54+61:34+76:52)
Источник (релизер): вата, lookunderyourshare, вафли, skyzwillfall, patrull
Наличие сканов в содержимом раздачи: нет
 
2001 - Please Refrain From Fronting
Треклист:
01. Take Wes Chandler For Instance 5:30
02. You & Mattel Vs Me & Coleco 5:32
03. Who Is Your Midwest Representation? 2:59
04. November 5:37
05. Invasion Has Become 5:58
06. Waltz For the Few Remaining 7:59
07. Homage Ritchie Valens 5:15
08. Acknowledge The Ascot 9:00
09. Koala Bear Wearing A T-Shirt With Your Corporate Logo 4:05
10. Buffalo '98 13:13
11. Long Live Rock & Roll 2:51
 
Лог создания рипа
X Lossless Decoder version 20100918 (122.1)
XLD extraction logfile from 2010-09-19 21:18:29 -0700
Happy Apple / Please Refrain From Fronting
Used drive : MATSHITA DVD-R UJ-85J (revision FM0S)
Use cdparanoia mode : YES (CDParanoia III 10.2 engine)
Disable audio cache : OK for the drive with cache less than 2750KB
Make use of C2 pointers : NO
Read offset correction : 102
Max retry count : 100
Gap status : Analyzed, Appended
TOC of the extracted CD
Track | Start | Length | Start sector | End sector
---------------------------------------------------------
1 | 00:00:00 | 05:29:57 | 0 | 24731
2 | 05:29:57 | 05:32:23 | 24732 | 49654
3 | 11:02:05 | 02:59:00 | 49655 | 63079
4 | 14:01:05 | 05:37:20 | 63080 | 88374
5 | 19:38:25 | 05:57:72 | 88375 | 115221
6 | 25:36:22 | 07:58:63 | 115222 | 151134
7 | 33:35:10 | 05:15:07 | 151135 | 174766
8 | 38:50:17 | 09:00:00 | 174767 | 215266
9 | 47:50:17 | 04:04:70 | 215267 | 233636
10 | 51:55:12 | 13:13:05 | 233637 | 293116
11 | 65:08:17 | 02:50:60 | 293117 | 305926
List of alternate offset correction values
# | Absolute | Relative | Confidence
------------------------------------------
1 | 119 | 17 | 1
All Tracks
Album gain : -8.43 dB
Peak : 1.000000
Track 01
Filename : /Users/*/Desktop/Happy Apple - Please Refrain From Fronting (2001) [FLAC]/01 Take Wes Chandler For Instance.flac
Pre-gap length : 00:02:00
Track gain : -5.09 dB
Peak : 0.999969
CRC32 hash (test run) : 9FDC42F8
CRC32 hash : 9FDC42F8
CRC32 hash (skip zero) : 9CA68B47
AccurateRip signature : 033D27F8
->Accurately ripped! (confidence 1)
(matched with the different offset correction value;
calculated using an additional offset of 17;
the signature after correction is: 395E6833)
Statistics
Read error : 0
Skipped (treated as error) : 0
Edge jitter error (maybe fixed) : 0
Atom jitter error (maybe fixed) : 0
Drift error (maybe fixed) : 0
Dropped bytes error (maybe fixed) : 0
Duplicated bytes error (maybe fixed) : 0
Inconsistency in error sectors : 0
Track 02
Filename : /Users/*/Desktop/Happy Apple - Please Refrain From Fronting (2001) [FLAC]/02 You & Mattel Vs Me & Coleco.flac
Pre-gap length : 00:02:57
Track gain : -6.89 dB
Peak : 0.966187
CRC32 hash (test run) : 5513232D
CRC32 hash : 5513232D
CRC32 hash (skip zero) : BF72293B
AccurateRip signature : CB04B285
->Accurately ripped! (confidence 1)
(matched with the different offset correction value;
calculated using an additional offset of 17;
the signature after correction is: 5E567497)
Statistics
Read error : 0
Skipped (treated as error) : 0
Edge jitter error (maybe fixed) : 0
Atom jitter error (maybe fixed) : 0
Drift error (maybe fixed) : 0
Dropped bytes error (maybe fixed) : 0
Duplicated bytes error (maybe fixed) : 0
Inconsistency in error sectors : 0
Track 03
Filename : /Users/*/Desktop/Happy Apple - Please Refrain From Fronting (2001) [FLAC]/03 Who Is Your Midwest Representation?.flac
Pre-gap length : 00:02:55
Track gain : -7.69 dB
Peak : 0.732941
CRC32 hash (test run) : DEBBC2DA
CRC32 hash : DEBBC2DA
CRC32 hash (skip zero) : AA1BE446
AccurateRip signature : 1A4A1B2B
->Accurately ripped! (confidence 1)
(matched with the different offset correction value;
calculated using an additional offset of 17;
the signature after correction is: E7C0D76D)
Statistics
Read error : 0
Skipped (treated as error) : 0
Edge jitter error (maybe fixed) : 0
Atom jitter error (maybe fixed) : 0
Drift error (maybe fixed) : 0
Dropped bytes error (maybe fixed) : 0
Duplicated bytes error (maybe fixed) : 0
Inconsistency in error sectors : 0
Track 04
Filename : /Users/*/Desktop/Happy Apple - Please Refrain From Fronting (2001) [FLAC]/04 November.flac
Track gain : -1.51 dB
Peak : 0.966125
CRC32 hash (test run) : 5F286B34
CRC32 hash : 5F286B34
CRC32 hash (skip zero) : 25BD7FE5
AccurateRip signature : C65006C2
->Accurately ripped! (confidence 1)
(matched with the different offset correction value;
calculated using an additional offset of 17;
the signature after correction is: 1D7283B9)
Statistics
Read error : 0
Skipped (treated as error) : 0
Edge jitter error (maybe fixed) : 0
Atom jitter error (maybe fixed) : 0
Drift error (maybe fixed) : 0
Dropped bytes error (maybe fixed) : 0
Duplicated bytes error (maybe fixed) : 0
Inconsistency in error sectors : 0
Track 05
Filename : /Users/*/Desktop/Happy Apple - Please Refrain From Fronting (2001) [FLAC]/05 The Invasion Has Become.flac
Track gain : -6.79 dB
Peak : 0.966187
CRC32 hash (test run) : 16D1AA2B
CRC32 hash : 16D1AA2B
CRC32 hash (skip zero) : DA1059B2
AccurateRip signature : 2F322EF2
->Accurately ripped! (confidence 1)
(matched with the different offset correction value;
calculated using an additional offset of 17;
the signature after correction is: 4A922533)
Statistics
Read error : 0
Skipped (treated as error) : 0
Edge jitter error (maybe fixed) : 0
Atom jitter error (maybe fixed) : 0
Drift error (maybe fixed) : 0
Dropped bytes error (maybe fixed) : 0
Duplicated bytes error (maybe fixed) : 0
Inconsistency in error sectors : 0
Track 06
Filename : /Users/*/Desktop/Happy Apple - Please Refrain From Fronting (2001) [FLAC]/06 A Waltz For The Few Remaining.flac
Pre-gap length : 00:03:30
Track gain : -4.56 dB
Peak : 0.966156
CRC32 hash (test run) : B5E81BDD
CRC32 hash : B5E81BDD
CRC32 hash (skip zero) : 5A9F7D74
AccurateRip signature : 6DC90527
->Accurately ripped! (confidence 1)
(matched with the different offset correction value;
calculated using an additional offset of 17;
the signature after correction is: 3269AD3B)
Statistics
Read error : 0
Skipped (treated as error) : 0
Edge jitter error (maybe fixed) : 0
Atom jitter error (maybe fixed) : 0
Drift error (maybe fixed) : 0
Dropped bytes error (maybe fixed) : 0
Duplicated bytes error (maybe fixed) : 0
Inconsistency in error sectors : 0
Track 07
Filename : /Users/*/Desktop/Happy Apple - Please Refrain From Fronting (2001) [FLAC]/07 Homage Ritchie Valens.flac
Pre-gap length : 00:03:13
Track gain : 2.13 dB
Peak : 0.575500
CRC32 hash (test run) : 114B59B3
CRC32 hash : 114B59B3
CRC32 hash (skip zero) : B0B98D44
AccurateRip signature : DD9362C6
->Accurately ripped! (confidence 1)
(matched with the different offset correction value;
calculated using an additional offset of 17;
the signature after correction is: 7F0880FA)
Statistics
Read error : 0
Skipped (treated as error) : 0
Edge jitter error (maybe fixed) : 0
Atom jitter error (maybe fixed) : 0
Drift error (maybe fixed) : 0
Dropped bytes error (maybe fixed) : 0
Duplicated bytes error (maybe fixed) : 0
Inconsistency in error sectors : 0
Track 08
Filename : /Users/*/Desktop/Happy Apple - Please Refrain From Fronting (2001) [FLAC]/08 Acknowledge The Ascot.flac
Pre-gap length : 00:06:05
Track gain : -6.66 dB
Peak : 1.000000
CRC32 hash (test run) : C3456C84
CRC32 hash : C3456C84
CRC32 hash (skip zero) : 00A8D88B
AccurateRip signature : A29488C0
->Accurately ripped! (confidence 1)
(matched with the different offset correction value;
calculated using an additional offset of 17;
the signature after correction is: 4902D246)
Statistics
Read error : 0
Skipped (treated as error) : 0
Edge jitter error (maybe fixed) : 0
Atom jitter error (maybe fixed) : 0
Drift error (maybe fixed) : 0
Dropped bytes error (maybe fixed) : 0
Duplicated bytes error (maybe fixed) : 0
Inconsistency in error sectors : 0
Track 09
Filename : /Users/*/Desktop/Happy Apple - Please Refrain From Fronting (2001) [FLAC]/09 Koala Bear Wearing A T-Shirt With Your Corporate Logo.flac
Pre-gap length : 00:01:65
Track gain : -7.87 dB
Peak : 0.966187
CRC32 hash (test run) : 9E72B07B
CRC32 hash : 9E72B07B
CRC32 hash (skip zero) : FF3D2BB7
AccurateRip signature : 4AB2EAE9
->Accurately ripped! (confidence 1)
(matched with the different offset correction value;
calculated using an additional offset of 17;
the signature after correction is: 70D683DE)
Statistics
Read error : 0
Skipped (treated as error) : 0
Edge jitter error (maybe fixed) : 0
Atom jitter error (maybe fixed) : 0
Drift error (maybe fixed) : 0
Dropped bytes error (maybe fixed) : 0
Duplicated bytes error (maybe fixed) : 0
Inconsistency in error sectors : 0
Track 10
Filename : /Users/*/Desktop/Happy Apple - Please Refrain From Fronting (2001) [FLAC]/10 Buffalo '98.flac
Pre-gap length : 00:05:12
Track gain : -10.62 dB
Peak : 0.966187
CRC32 hash (test run) : 29D4AB67
CRC32 hash : 29D4AB67
CRC32 hash (skip zero) : 93849DBB
AccurateRip signature : F9854825
->Accurately ripped! (confidence 1)
(matched with the different offset correction value;
calculated using an additional offset of 17;
the signature after correction is: 9A256E94)
Statistics
Read error : 0
Skipped (treated as error) : 0
Edge jitter error (maybe fixed) : 0
Atom jitter error (maybe fixed) : 0
Drift error (maybe fixed) : 0
Dropped bytes error (maybe fixed) : 0
Duplicated bytes error (maybe fixed) : 0
Inconsistency in error sectors : 0
Track 11
Filename : /Users/*/Desktop/Happy Apple - Please Refrain From Fronting (2001) [FLAC]/11 Long Live Rock & Roll.flac
Track gain : 0.18 dB
Peak : 0.609589
CRC32 hash (test run) : 972697FC
CRC32 hash : 972697FC
CRC32 hash (skip zero) : 3BEA2EE8
AccurateRip signature : 7C2DC704
->Rip may not be accurate.
Statistics
Read error : 0
Skipped (treated as error) : 0
Edge jitter error (maybe fixed) : 0
Atom jitter error (maybe fixed) : 0
Drift error (maybe fixed) : 0
Dropped bytes error (maybe fixed) : 0
Duplicated bytes error (maybe fixed) : 0
Inconsistency in error sectors : 0
No errors occurred
End of status report
 
Содержание индексной карты (.CUE)
TITLE "Please Refrain From Fronting"
PERFORMER "Happy Apple"
REM GENRE "Jazz"
REM DATE 2001
REM DISCID 830FEF0B
FILE "01 Take Wes Chandler For Instance.wav" WAVE
TRACK 01 AUDIO
TITLE "Take Wes Chandler For Instance"
INDEX 01 00:00:00
TRACK 02 AUDIO
TITLE "You & Mattel Vs Me & Coleco"
INDEX 00 05:27:00
FILE "02 You & Mattel Vs Me & Coleco.wav" WAVE
INDEX 01 00:00:00
TRACK 03 AUDIO
TITLE "Who Is Your Midwest Representation?"
INDEX 00 05:29:43
FILE "03 Who Is Your Midwest Representation?.wav" WAVE
INDEX 01 00:00:00
FILE "04 November.wav" WAVE
TRACK 04 AUDIO
TITLE "November"
INDEX 01 00:00:00
FILE "05 The Invasion Has Become.wav" WAVE
TRACK 05 AUDIO
TITLE "The Invasion Has Become"
INDEX 01 00:00:00
TRACK 06 AUDIO
TITLE "A Waltz For The Few Remaining"
INDEX 00 05:54:42
FILE "06 A Waltz For The Few Remaining.wav" WAVE
INDEX 01 00:00:00
TRACK 07 AUDIO
TITLE "Homage Ritchie Valens"
INDEX 00 07:55:50
FILE "07 Homage Ritchie Valens.wav" WAVE
INDEX 01 00:00:00
TRACK 08 AUDIO
TITLE "Acknowledge The Ascot"
INDEX 00 05:09:02
FILE "08 Acknowledge The Ascot.wav" WAVE
INDEX 01 00:00:00
TRACK 09 AUDIO
TITLE "Koala Bear Wearing A T-Shirt With Your Corporate Logo"
INDEX 00 08:58:10
FILE "09 Koala Bear Wearing A T-Shirt With Your Corporate Logo.wav" WAVE
INDEX 01 00:00:00
TRACK 10 AUDIO
TITLE "Buffalo '98"
INDEX 00 03:59:58
FILE "10 Buffalo '98.wav" WAVE
INDEX 01 00:00:00
FILE "11 Long Live Rock & Roll.wav" WAVE
TRACK 11 AUDIO
TITLE "Long Live Rock & Roll"
INDEX 01 00:00:00
 
AudioChecker
AUDIOCHECKER v2.0 beta (build 457) - by Dester - opdester@freemail.hu
~~~~~~~~~~~~~~~~~~~~~~~~~~~~~~~~~~
-=== НЕ РЕДАКТИРУЙТЕ ЭТОТ ФАЙЛ! ===-
Путь: ...\Happy Apple - Please Refrain From Fronting (2001) [FLAC]
01 -=- 01 Take Wes Chandler For Instance.flac -=- CDDA (100%)
02 -=- 02 You & Mattel Vs Me & Coleco.flac -=- CDDA (100%)
03 -=- 03 Who Is Your Midwest Representation.flac -=- CDDA (100%)
04 -=- 04 November.flac -=- CDDA (100%)
05 -=- 05 The Invasion Has Become.flac -=- CDDA (100%)
06 -=- 06 A Waltz For The Few Remaining.flac -=- CDDA (99%)
07 -=- 07 Homage Ritchie Valens.flac -=- CDDA (100%)
08 -=- 08 Acknowledge The Ascot.flac -=- CDDA (99%)
09 -=- 09 Koala Bear Wearing A T-Shirt With Your Corporate Logo.flac -=- CDDA (100%)
10 -=- 10 Buffalo '98.flac -=- CDDA (100%)
11 -=- 11 Long Live Rock & Roll.flac -=- CDDA (100%)
Сводка 99,82% CDDA
134952580
 
2003 - Youth Oriented
Треклист:
01. Youth Oriented 05:44
02. Green grass stains on Wrangler 05:14
03. The Landfall Planetarium 08:26
04. Salmon jump suit 03:37
05. Drama section 10:03
06. The treetops of a bad neighbou 07:58
07. It will be 05:03
08. Creme de Menthe Quasar 13:09
09. Youth Oriented 02:22
 
Лог создания рипа
Exact Audio Copy V0.99 prebeta 3 from 28. July 2007
EAC extraction logfile from 30. January 2009, 20:45
Happy Apple / Youth Oriented
Used drive : SONY DVD-ROM DDU1615 Adapter: 1 ID: 1
Read mode : Secure
Utilize accurate stream : Yes
Defeat audio cache : Yes
Make use of C2 pointers : No
Read offset correction : 6
Overread into Lead-In and Lead-Out : No
Fill up missing offset samples with silence : Yes
Delete leading and trailing silent blocks : No
Null samples used in CRC calculations : Yes
Used interface : Native Win32 interface for Win NT & 2000
Gap handling : Appended to previous track
Used output format : User Defined Encoder
Selected bitrate : 128 kBit/s
Quality : High
Add ID3 tag : No
Command line compressor : C:\Program Files\FLAC\flac.exe
Additional command line options : -V -8 -T "artist=%a" -T "title=%t" -T "album=%g" -T "date=%y" -T "tracknumber=%n" -T "genre=%m" %s
TOC of the extracted CD
Track | Start | Length | Start sector | End sector
---------------------------------------------------------
1 | 0:00.00 | 5:43.70 | 0 | 25794
2 | 5:43.70 | 5:14.65 | 25795 | 49409
3 | 10:58.60 | 8:26.30 | 49410 | 87389
4 | 19:25.15 | 3:37.20 | 87390 | 103684
5 | 23:02.35 | 10:02.70 | 103685 | 148904
6 | 33:05.30 | 7:58.50 | 148905 | 184804
7 | 41:04.05 | 5:03.52 | 184805 | 207581
8 | 46:07.57 | 13:09.53 | 207582 | 266809
9 | 59:17.35 | 2:22.37 | 266810 | 277496
Track 1
Filename X:\Seeding\FLAC\Happy Apple - Youth Oriented\01 - Youth Oriented.wav
Pre-gap length 0:00:02.00
Peak level 96.6 %
Track quality 100.0 %
Test CRC 19BC97BC
Copy CRC 19BC97BC
Copy OK
Track 2
Filename X:\Seeding\FLAC\Happy Apple - Youth Oriented\02 - Green grass stains on Wrangler Jeans.wav
Peak level 96.6 %
Track quality 100.0 %
Test CRC B8D00D21
Copy CRC B8D00D21
Copy OK
Track 3
Filename X:\Seeding\FLAC\Happy Apple - Youth Oriented\03 - The Landfall Planetarium.wav
Peak level 96.6 %
Track quality 99.9 %
Test CRC 70E75E3E
Copy CRC 70E75E3E
Copy OK
Track 4
Filename X:\Seeding\FLAC\Happy Apple - Youth Oriented\04 - Salmon jump suit.wav
Peak level 96.6 %
Track quality 100.0 %
Test CRC 11A4F6BD
Copy CRC 11A4F6BD
Copy OK
Track 5
Filename X:\Seeding\FLAC\Happy Apple - Youth Oriented\05 - Drama section.wav
Peak level 96.6 %
Track quality 100.0 %
Test CRC 88666B64
Copy CRC 88666B64
Copy OK
Track 6
Filename X:\Seeding\FLAC\Happy Apple - Youth Oriented\06 - The treetops of a bad neighbourhood.wav
Peak level 96.6 %
Track quality 100.0 %
Test CRC 0FDBAE67
Copy CRC 0FDBAE67
Copy OK
Track 7
Filename X:\Seeding\FLAC\Happy Apple - Youth Oriented\07 - It will be.wav
Peak level 96.6 %
Track quality 100.0 %
Test CRC BACC9AB3
Copy CRC BACC9AB3
Copy OK
Track 8
Filename X:\Seeding\FLAC\Happy Apple - Youth Oriented\08 - Crème de Menthe Quasar.wav
Peak level 96.6 %
Track quality 99.8 %
Test CRC C666FA06
Copy CRC C666FA06
Copy OK
Track 9
Filename X:\Seeding\FLAC\Happy Apple - Youth Oriented\09 - Youth Oriented.wav
Peak level 96.6 %
Track quality 100.0 %
Test CRC 3BC9CADD
Copy CRC 3BC9CADD
Copy OK
No errors occurred
End of status report
 
Содержание индексной карты (.CUE)
REM GENRE Jazz
REM DATE 2003
REM DISCID 920E7309
REM COMMENT "ExactAudioCopy v0.99pb3"
PERFORMER "Happy Apple"
TITLE "Youth Oriented"
FILE "01 - Youth Oriented.wav" WAVE
TRACK 01 AUDIO
TITLE "Youth Oriented"
PERFORMER "Happy Apple"
INDEX 01 00:00:00
FILE "02 - Green grass stains on Wrangler Jeans.wav" WAVE
TRACK 02 AUDIO
TITLE "Green grass stains on Wrangler Jeans"
PERFORMER "Happy Apple"
INDEX 01 00:00:00
FILE "03 - The Landfall Planetarium.wav" WAVE
TRACK 03 AUDIO
TITLE "The Landfall Planetarium"
PERFORMER "Happy Apple"
INDEX 01 00:00:00
FILE "04 - Salmon jump suit.wav" WAVE
TRACK 04 AUDIO
TITLE "Salmon jump suit"
PERFORMER "Happy Apple"
INDEX 01 00:00:00
FILE "05 - Drama section.wav" WAVE
TRACK 05 AUDIO
TITLE "Drama section"
PERFORMER "Happy Apple"
INDEX 01 00:00:00
FILE "06 - The treetops of a bad neighbourhood.wav" WAVE
TRACK 06 AUDIO
TITLE "The treetops of a bad neighbourhood"
PERFORMER "Happy Apple"
INDEX 01 00:00:00
FILE "07 - It will be.wav" WAVE
TRACK 07 AUDIO
TITLE "It will be"
PERFORMER "Happy Apple"
INDEX 01 00:00:00
FILE "08 - Crème de Menthe Quasar.wav" WAVE
TRACK 08 AUDIO
TITLE "Crème de Menthe Quasar"
PERFORMER "Happy Apple"
INDEX 01 00:00:00
FILE "09 - Youth Oriented.wav" WAVE
TRACK 09 AUDIO
TITLE "Youth Oriented"
PERFORMER "Happy Apple"
INDEX 01 00:00:00
 
AudioChecker
AUDIOCHECKER v2.0 beta (build 457) - by Dester - opdester@freemail.hu
~~~~~~~~~~~~~~~~~~~~~~~~~~~~~~~~~~
-=== НЕ РЕДАКТИРУЙТЕ ЭТОТ ФАЙЛ! ===-
Путь: ...\Happy Apple - Youth Oriented
1 -=- 01 - Youth Oriented.flac -=- CDDA (100%)
2 -=- 02 - Green grass stains on Wrangler Jeans.flac -=- CDDA (99%)
3 -=- 03 - The Landfall Planetarium.flac -=- CDDA (100%)
4 -=- 04 - Salmon jump suit.flac -=- CDDA (100%)
5 -=- 05 - Drama section.flac -=- CDDA (99%)
6 -=- 06 - The treetops of a bad neighbourhood.flac -=- CDDA (100%)
7 -=- 07 - It will be.flac -=- CDDA (100%)
8 -=- 08 - Creme de Menthe Quasar.flac -=- ERROR
9 -=- 09 - Youth Oriented.flac -=- CDDA (100%)
Сводка 99,75% CDDA
158042964
 
2005 - The Peace Between Our Companies
Треклист:
01. Go. 2:34
02. Afternoon In Marrakech Playing Ya Moulana part 1. 5:09
03. Pauline Quicks Temper. 2:23
04. Afternoon In Marrakech Playing Ya Moulana part 2. 2:00
05. Dojo Fantastique. 9:23
06. Pomme Heureuse. 4:55
07. Starchild Cranium. 4:46
08. Lets Not Reflect. 6:18
09. Sea Sun Spot Run. 12:32
10. Free Lance Robotics. 8:50
11. Afternoon In Marrakech Playing Ya Moulana part 3. 10:19
12. Ella by Nightlight. 7:50
 
Лог создания рипа
Exact Audio Copy V1.0 beta 3 from 29. August 2011
EAC extraction logfile from 30. December 2011, 20:41
Happy Apple / The peace between our companies
Used drive : ASUS DRW-1814BLT Adapter: 1 ID: 0
Read mode : Secure
Utilize accurate stream : Yes
Defeat audio cache : Yes
Make use of C2 pointers : No
Read offset correction : 6
Overread into Lead-In and Lead-Out : No
Fill up missing offset samples with silence : Yes
Delete leading and trailing silent blocks : No
Null samples used in CRC calculations : Yes
Used interface : Native Win32 interface for Win NT & 2000
Gap handling : Appended to previous track
Used output format : User Defined Encoder
Selected bitrate : 896 kBit/s
Quality : High
Add ID3 tag : No
Command line compressor : C:\Program Files\Exact Audio Copy\Flac\flac.exe
Additional command line options : -V -8 -T "artist=%artist%" -T "title=%title%" -T "album=%albumtitle%" -T "date=%year%" -T "tracknumber=%tracknr2%" -T "genre=%genre%" %source%
TOC of the extracted CD
Track | Start | Length | Start sector | End sector
---------------------------------------------------------
1 | 0:00.00 | 2:34.06 | 0 | 11555
2 | 2:34.06 | 5:09.27 | 11556 | 34757
3 | 7:43.33 | 2:22.66 | 34758 | 45473
4 | 10:06.24 | 2:00.07 | 45474 | 54480
5 | 12:06.31 | 9:23.01 | 54481 | 96706
6 | 21:29.32 | 4:54.42 | 96707 | 118798
7 | 26:23.74 | 4:45.61 | 118799 | 140234
8 | 31:09.60 | 6:17.40 | 140235 | 168549
9 | 37:27.25 | 12:32.21 | 168550 | 224970
10 | 49:59.46 | 8:49.65 | 224971 | 264710
11 | 58:49.36 | 10:18.53 | 264711 | 311113
12 | 69:08.14 | 7:49.40 | 311114 | 346328
Track 1
Filename E:\MU\rip\CD-FLAC-Lossless-Cue-Log-M3u\Happy Apple - The peace between our companies (2004)\01 Go.wav
Pre-gap length 0:00:02.00
Peak level 99.3 %
Extraction speed 3.5 X
Track quality 100.0 %
Test CRC 4C488D0C
Copy CRC 4C488D0C
Track not present in AccurateRip database
Copy OK
Track 2
Filename E:\MU\rip\CD-FLAC-Lossless-Cue-Log-M3u\Happy Apple - The peace between our companies (2004)\02 Afternoon in Marrakech playing ya Moulana part 1.wav
Peak level 99.1 %
Extraction speed 4.3 X
Track quality 100.0 %
Test CRC 70AC9AC7
Copy CRC 70AC9AC7
Track not present in AccurateRip database
Copy OK
Track 3
Filename E:\MU\rip\CD-FLAC-Lossless-Cue-Log-M3u\Happy Apple - The peace between our companies (2004)\03 Paulie's quick temper.wav
Peak level 99.3 %
Extraction speed 4.1 X
Track quality 100.0 %
Test CRC 2B807DB9
Copy CRC 2B807DB9
Track not present in AccurateRip database
Copy OK
Track 4
Filename E:\MU\rip\CD-FLAC-Lossless-Cue-Log-M3u\Happy Apple - The peace between our companies (2004)\04 Afternoon in Marrakech playing ya Moulana part 2.wav
Peak level 96.4 %
Extraction speed 4.0 X
Track quality 100.0 %
Test CRC C8264A73
Copy CRC C8264A73
Track not present in AccurateRip database
Copy OK
Track 5
Filename E:\MU\rip\CD-FLAC-Lossless-Cue-Log-M3u\Happy Apple - The peace between our companies (2004)\05 Dojo Fantastique.wav
Peak level 99.3 %
Extraction speed 5.5 X
Track quality 100.0 %
Test CRC 228EEFCA
Copy CRC 228EEFCA
Track not present in AccurateRip database
Copy OK
Track 6
Filename E:\MU\rip\CD-FLAC-Lossless-Cue-Log-M3u\Happy Apple - The peace between our companies (2004)\06 Pomme Heureuse.wav
Peak level 99.3 %
Extraction speed 5.6 X
Track quality 100.0 %
Test CRC CC27562B
Copy CRC CC27562B
Track not present in AccurateRip database
Copy OK
Track 7
Filename E:\MU\rip\CD-FLAC-Lossless-Cue-Log-M3u\Happy Apple - The peace between our companies (2004)\07 Starchild Cranium.wav
Pre-gap length 0:00:00.73
Peak level 99.3 %
Extraction speed 5.9 X
Track quality 100.0 %
Test CRC 75085DF8
Copy CRC 75085DF8
Track not present in AccurateRip database
Copy OK
Track 8
Filename E:\MU\rip\CD-FLAC-Lossless-Cue-Log-M3u\Happy Apple - The peace between our companies (2004)\08 Let's not reflect.wav
Peak level 99.3 %
Extraction speed 6.4 X
Track quality 100.0 %
Test CRC B57F6369
Copy CRC B57F6369
Track not present in AccurateRip database
Copy OK
Track 9
Filename E:\MU\rip\CD-FLAC-Lossless-Cue-Log-M3u\Happy Apple - The peace between our companies (2004)\09 Sea Sun Spot Run.wav
Peak level 99.3 %
Extraction speed 5.3 X
Track quality 99.9 %
Test CRC 3E5CDE7A
Copy CRC 3E5CDE7A
Track not present in AccurateRip database
Copy OK
Track 10
Filename E:\MU\rip\CD-FLAC-Lossless-Cue-Log-M3u\Happy Apple - The peace between our companies (2004)\10 Free Lance Robotics.wav
Peak level 99.3 %
Extraction speed 5.5 X
Track quality 99.9 %
Test CRC 2CD9F572
Copy CRC 2CD9F572
Track not present in AccurateRip database
Copy OK
Track 11
Filename E:\MU\rip\CD-FLAC-Lossless-Cue-Log-M3u\Happy Apple - The peace between our companies (2004)\11 Afternoon in Marrakech playing ya Moulana part 3.wav
Peak level 99.2 %
Extraction speed 8.2 X
Track quality 100.0 %
Test CRC 1CC8B6D2
Copy CRC 1CC8B6D2
Track not present in AccurateRip database
Copy OK
Track 12
Filename E:\MU\rip\CD-FLAC-Lossless-Cue-Log-M3u\Happy Apple - The peace between our companies (2004)\12 Ella by Nightlight.wav
Pre-gap length 0:00:01.40
Peak level 100.0 %
Extraction speed 8.5 X
Track quality 100.0 %
Test CRC 5D6838E3
Copy CRC 5D6838E3
Track not present in AccurateRip database
Copy OK
None of the tracks are present in the AccurateRip database
No errors occurred
End of status report
==== Log checksum DE755DB52C7303B0BD641CDF26120ABB62CB2F65FDCDC540C7F49171345C751E ====
 
Содержание индексной карты (.CUE)
REM GENRE Crossover
REM DATE 2004
REM DISCID 9812090C
REM COMMENT "ExactAudioCopy v1.0b3"
PERFORMER "Happy Apple"
TITLE "The peace between our companies"
FILE "01 Go.wav" WAVE
TRACK 01 AUDIO
TITLE "Go"
PERFORMER "Happy Apple"
INDEX 01 00:00:00
FILE "02 Afternoon in Marrakech playing ya Moulana part 1.wav" WAVE
TRACK 02 AUDIO
TITLE "Afternoon in Marrakech playing ya Moulana part 1"
PERFORMER "Happy Apple"
INDEX 01 00:00:00
FILE "03 Paulie's quick temper.wav" WAVE
TRACK 03 AUDIO
TITLE "Paulie's quick temper"
PERFORMER "Happy Apple"
INDEX 01 00:00:00
FILE "04 Afternoon in Marrakech playing ya Moulana part 2.wav" WAVE
TRACK 04 AUDIO
TITLE "Afternoon in Marrakech playing ya Moulana part 2"
PERFORMER "Happy Apple"
INDEX 01 00:00:00
FILE "05 Dojo Fantastique.wav" WAVE
TRACK 05 AUDIO
TITLE "Dojo Fantastique"
PERFORMER "Happy Apple"
INDEX 01 00:00:00
FILE "06 Pomme Heureuse.wav" WAVE
TRACK 06 AUDIO
TITLE "Pomme Heureuse"
PERFORMER "Happy Apple"
INDEX 01 00:00:00
TRACK 07 AUDIO
TITLE "Starchild Cranium"
PERFORMER "Happy Apple"
INDEX 00 04:53:62
FILE "07 Starchild Cranium.wav" WAVE
INDEX 01 00:00:00
FILE "08 Let's not reflect.wav" WAVE
TRACK 08 AUDIO
TITLE "Let's not reflect"
PERFORMER "Happy Apple"
INDEX 01 00:00:00
FILE "09 Sea Sun Spot Run.wav" WAVE
TRACK 09 AUDIO
TITLE "Sea Sun Spot Run"
PERFORMER "Happy Apple"
INDEX 01 00:00:00
FILE "10 Free Lance Robotics.wav" WAVE
TRACK 10 AUDIO
TITLE "Free Lance Robotics"
PERFORMER "Happy Apple"
INDEX 01 00:00:00
FILE "11 Afternoon in Marrakech playing ya Moulana part 3.wav" WAVE
TRACK 11 AUDIO
TITLE "Afternoon in Marrakech playing ya Moulana part 3"
PERFORMER "Happy Apple"
INDEX 01 00:00:00
TRACK 12 AUDIO
TITLE "Ella by Nightlight"
PERFORMER "Happy Apple"
INDEX 00 10:17:23
FILE "12 Ella by Nightlight.wav" WAVE
INDEX 01 00:00:00
 
AudioChecker
AUDIOCHECKER v2.0 beta (build 457) - by Dester - opdester@freemail.hu
~~~~~~~~~~~~~~~~~~~~~~~~~~~~~~~~~~
-=== НЕ РЕДАКТИРУЙТЕ ЭТОТ ФАЙЛ! ===-
Путь: ...\Happy Apple - The peace between our companies (2004)
01 -=- 01 Go.flac -=- CDDA (100%)
02 -=- 02 Afternoon in Marrakech playing ya Moulana part 1.flac -=- CDDA (100%)
03 -=- 03 Paulie's quick temper.flac -=- CDDA (100%)
04 -=- 04 Afternoon in Marrakech playing ya Moulana part 2.flac -=- CDDA (100%)
05 -=- 05 Dojo Fantastique.flac -=- CDDA (100%)
06 -=- 06 Pomme Heureuse.flac -=- CDDA (100%)
07 -=- 07 Starchild Cranium.flac -=- CDDA (99%)
08 -=- 08 Let's not reflect.flac -=- CDDA (100%)
09 -=- 09 Sea Sun Spot Run.flac -=- CDDA (100%)
10 -=- 10 Free Lance Robotics.flac -=- CDDA (100%)
11 -=- 11 Afternoon in Marrakech playing ya Moulana part 3.flac -=- CDDA (100%)
12 -=- 12 Ella by Nightlight.flac -=- CDDA (100%)
Сводка 99,92% CDDA
227122308
Доп. информация: Залез не в свою ветку, поэтому не бейте сильно, ежели напутал с тэгами. Раздача оформлена по просьбе гл.ув. vp_sunset, он же VP, он же Вячеслав Потапов. Кстати, с его творчеством можно ознакомиться тут http://rutracker.org/forum/viewtopic.php?t=3859896 или тут http://rutracker.org/forum/viewtopic.php?t=3238598
 
Об исполнителе (группе)
http://en.wikipedia.org/wiki/Happy_Apple
Это модерн-джазовое трио было образовано в Миннеаполисе, Миннесота, в 1996 году. Практически все композиции музыканты сочиняют вместе. Творчество команды выделяется образом джаза, интегрированного в другие стили музыки. Пьесы построены на сочетании таких жанров как альтернативный и инди-рок, контемпорари и фри джаз, хэви-метал и электроника. Они так исполняют джаз, будто для них не имеет совершенно никакого значения как эту музыку будут потом называть и классифицировать. Основная фишка коллектива - в электрическом бас-гитаристе, который слегка под влиянием Жако Пасториуса, однако много больше под впечатлением от американских инди-рокеров. Музыка группы - современный джаз-рок с характерным привкусом альт-рока и отсылками ко многим легендарным штатовским рок-командам и не только. В роковых моментах мне, например, услышались Weather Report и Sonic Youth, отвязные фри-джазовые саксовые соло явственно напоминают Джона Колтрейна и Орнетта Коулмана, а низкотональная басовая гимнастика уже отсылает к тому же Жако Пасториусу. Несмотря на это, группа обладает своим ярко выраженным лицом и, более того, уже имеет массу подражателей в джаз-роковых кругах. Однако широкой музыкальной общественности трио известно во многом благодаря барабанщику Дэвиду Кингу, который также является постоянным участником более известного проекта - The Bad Plus. Название Happy Apple происходит от игрушки 70-х годов fisher-price. Это маленькая звенящая коробочка, которую Дэвид использует на концертах в качестве перкуссии.
 
Состав
Erik Fratzke - bass, guitar
David King - drums, mellotron, megaphone, waterphone, toy instruments
Michael Lewis - alto sax, soprano sax, tenor sax, double bass
Any questions -> support@pro-jazz.com. По всем вопросам пишите -> support@pro-jazz.com
22:45
221
Нет комментариев. Ваш будет первым!