Вы используете незарегистрированную версию компонента "Вкладки"!

Поиск

(Avant-Garde Jazz, Free Improvisation, FMR) [CD] Steve Hubback & Ad Peijnenburg - Arrows - 2009, FLAC (tracks+.cue), lossless

(Avant-Garde Jazz, Free Improvisation, FMR) [CD] Steve Hubback & Ad Peijnenburg - Arrows - 2009, FLAC (tracks+.cue), lossless
Треклист:
Steve Hubback & Ad Peijnenburg / Arrows
Жанр: Avant-Garde Jazz, Free Improvisation, FMR
Носитель: CD
Страна-производитель диска (релиза): UK
Год издания: 2009
Издатель (лейбл): FMR Records
Номер по каталогу: FMRCD283-0210
Страна исполнителя (группы): Belgium
Аудиокодек: FLAC (*.flac)
Тип рипа: tracks+.cue
Битрейт аудио: lossless
Продолжительность: 48:50
Источник (релизер): свой фирменный диск
Наличие сканов в содержимом раздачи:
Треклист:
1. Impression From Silence 9:02
2. Impression From Silence II 9:04
3. Prooi 5:02
4. Something Circles 3:44
5. Ancient America 3:37
6. Mole Dance 2:06
7. Ayshan Brass 3:51
8. Baritayle 2:42
9. One For Moradi 4:38
10. Zeldzaam 3:52
11. One For Moradi II 2:50
 
Лог создания рипа
Exact Audio Copy V1.0 beta 3 from 29. August 2011
EAC extraction logfile from 21. November 2014, 23:28
Steve Hubback & Ad Peijnenburg / Arrows
Used drive : PIONEER DVD-RW DVR-115D Adapter: 0 ID: 0
Read mode : Secure
Utilize accurate stream : Yes
Defeat audio cache : Yes
Make use of C2 pointers : No
Read offset correction : 48
Overread into Lead-In and Lead-Out : No
Fill up missing offset samples with silence : Yes
Delete leading and trailing silent blocks : No
Null samples used in CRC calculations : Yes
Used interface : Installed external ASPI interface
Gap handling : Appended to previous track
Used output format : User Defined Encoder
Selected bitrate : 768 kBit/s
Quality : High
Add ID3 tag : No
Command line compressor : C:\Program Files\Exact Audio Copy\Flac\flac.exe
Additional command line options : -6 -V -T "ARTIST=%artist%" -T "TITLE=%title%" -T "ALBUM=%albumtitle%" -T "DATE=%year%" -T "TRACKNUMBER=%tracknr%" -T "GENRE=%genre%" -T "COMMENT=%comment%" -T "BAND=%albuminterpret%" -T "COMPOSER=%composer%" %haslyrics%--tag-from-file=LYRICS="%lyricsfile%"%haslyrics% -T "DISCNUMBER=%cdnumber%" -T "TOTALDISCS=%totalcds%" -T "TOTALTRACKS=%numtracks%" %hascover%--picture="%coverfile%"%hascover% %source% -o %dest%
TOC of the extracted CD
Track | Start | Length | Start sector | End sector
---------------------------------------------------------
1 | 0:00.00 | 8:59.05 | 0 | 40429
2 | 8:59.05 | 9:02.73 | 40430 | 81152
3 | 18:02.03 | 5:10.72 | 81153 | 104474
4 | 23:13.00 | 3:24.17 | 104475 | 119791
5 | 26:37.17 | 3:37.22 | 119792 | 136088
6 | 30:14.39 | 2:10.62 | 136089 | 145900
7 | 32:25.26 | 3:44.44 | 145901 | 162744
8 | 36:09.70 | 2:44.30 | 162745 | 175074
9 | 38:54.25 | 4:26.49 | 175075 | 195073
10 | 43:20.74 | 2:48.64 | 195074 | 207737
11 | 46:09.63 | 2:40.19 | 207738 | 219756
Track 1
Filename D:\zzz\01 - Impression From Silence.wav
Pre-gap length 0:00:02.00
Peak level 61.2 %
Extraction speed 4.9 X
Track quality 100.0 %
Test CRC CDE97C05
Copy CRC CDE97C05
Track not present in AccurateRip database
Copy OK
Track 2
Filename D:\zzz\02 - Impression From Silence II.wav
Pre-gap length 0:00:01.00
Peak level 71.4 %
Extraction speed 5.8 X
Track quality 100.0 %
Test CRC 84FA6615
Copy CRC 84FA6615
Track not present in AccurateRip database
Copy OK
Track 3
Filename D:\zzz\03 - Prooi.wav
Pre-gap length 0:00:01.00
Peak level 29.3 %
Extraction speed 6.2 X
Track quality 100.0 %
Test CRC 0F158F0E
Copy CRC 0F158F0E
Track not present in AccurateRip database
Copy OK
Track 4
Filename D:\zzz\04 - Something Circles.wav
Pre-gap length 0:00:01.00
Peak level 95.4 %
Extraction speed 6.1 X
Track quality 100.0 %
Test CRC EAF30E4C
Copy CRC EAF30E4C
Track not present in AccurateRip database
Copy OK
Track 5
Filename D:\zzz\05 - Ancient America.wav
Pre-gap length 0:00:01.00
Peak level 95.4 %
Extraction speed 6.4 X
Track quality 100.0 %
Test CRC D8ED4C01
Copy CRC D8ED4C01
Track not present in AccurateRip database
Copy OK
Track 6
Filename D:\zzz\06 - Mole Dance.wav
Pre-gap length 0:00:01.00
Peak level 69.2 %
Extraction speed 4.9 X
Track quality 99.9 %
Test CRC 22412712
Copy CRC 22412712
Track not present in AccurateRip database
Copy OK
Track 7
Filename D:\zzz\07 - Ayshan Brass.wav
Pre-gap length 0:00:01.00
Peak level 95.4 %
Extraction speed 6.8 X
Track quality 100.0 %
Test CRC FBFAC6D5
Copy CRC FBFAC6D5
Track not present in AccurateRip database
Copy OK
Track 8
Filename D:\zzz\08 - Baritayle.wav
Pre-gap length 0:00:01.00
Peak level 95.4 %
Extraction speed 6.7 X
Track quality 100.0 %
Test CRC 1966EE01
Copy CRC 1966EE01
Track not present in AccurateRip database
Copy OK
Track 9
Filename D:\zzz\09 - One For Moradi.wav
Pre-gap length 0:00:01.00
Peak level 96.6 %
Extraction speed 7.3 X
Track quality 100.0 %
Test CRC 50A592BE
Copy CRC 50A592BE
Track not present in AccurateRip database
Copy OK
Track 10
Filename D:\zzz\10 - Zeldzaam.wav
Pre-gap length 0:00:01.00
Peak level 95.4 %
Extraction speed 7.0 X
Track quality 100.0 %
Test CRC ADFD284B
Copy CRC ADFD284B
Track not present in AccurateRip database
Copy OK
Track 11
Filename D:\zzz\11 - One For Moradi II.wav
Pre-gap length 0:00:01.00
Peak level 97.7 %
Extraction speed 7.0 X
Track quality 100.0 %
Test CRC 3439D5D6
Copy CRC 3439D5D6
Track not present in AccurateRip database
Copy OK
None of the tracks are present in the AccurateRip database
No errors occurred
End of status report
==== Log checksum B12ECC1CB5CA5532D8FCA5500D9750876C2437B68B6C56314CE1DD443156A30C ====
 
Содержание индексной карты (.CUE)
REM GENRE "Free Improvisation"
REM DATE 2009
REM DISCID 9C0B720B
REM COMMENT "ExactAudioCopy v1.0b3"
PERFORMER "Steve Hubback & Ad Peijnenburg"
TITLE "Arrows"
FILE "01 - Impression From Silence.wav" WAVE
TRACK 01 AUDIO
TITLE "Impression From Silence"
PERFORMER "Steve Hubback & Ad Peijnenburg"
INDEX 01 00:00:00
TRACK 02 AUDIO
TITLE "Impression From Silence II"
PERFORMER "Steve Hubback & Ad Peijnenburg"
INDEX 00 08:58:05
FILE "02 - Impression From Silence II.wav" WAVE
INDEX 01 00:00:00
TRACK 03 AUDIO
TITLE "Prooi"
PERFORMER "Steve Hubback & Ad Peijnenburg"
INDEX 00 09:01:73
FILE "03 - Prooi.wav" WAVE
INDEX 01 00:00:00
TRACK 04 AUDIO
TITLE "Something Circles"
PERFORMER "Steve Hubback & Ad Peijnenburg"
INDEX 00 05:09:72
FILE "04 - Something Circles.wav" WAVE
INDEX 01 00:00:00
TRACK 05 AUDIO
TITLE "Ancient America"
PERFORMER "Steve Hubback & Ad Peijnenburg"
INDEX 00 03:23:17
FILE "05 - Ancient America.wav" WAVE
INDEX 01 00:00:00
TRACK 06 AUDIO
TITLE "Mole Dance"
PERFORMER "Steve Hubback & Ad Peijnenburg"
INDEX 00 03:36:22
FILE "06 - Mole Dance.wav" WAVE
INDEX 01 00:00:00
TRACK 07 AUDIO
TITLE "Ayshan Brass"
PERFORMER "Steve Hubback & Ad Peijnenburg"
INDEX 00 02:09:62
FILE "07 - Ayshan Brass.wav" WAVE
INDEX 01 00:00:00
TRACK 08 AUDIO
TITLE "Baritayle"
PERFORMER "Steve Hubback & Ad Peijnenburg"
INDEX 00 03:43:44
FILE "08 - Baritayle.wav" WAVE
INDEX 01 00:00:00
TRACK 09 AUDIO
TITLE "One For Moradi"
PERFORMER "Steve Hubback & Ad Peijnenburg"
INDEX 00 02:43:30
FILE "09 - One For Moradi.wav" WAVE
INDEX 01 00:00:00
TRACK 10 AUDIO
TITLE "Zeldzaam"
PERFORMER "Steve Hubback & Ad Peijnenburg"
INDEX 00 04:25:49
FILE "10 - Zeldzaam.wav" WAVE
INDEX 01 00:00:00
TRACK 11 AUDIO
TITLE "One For Moradi II"
PERFORMER "Steve Hubback & Ad Peijnenburg"
INDEX 00 02:47:64
FILE "11 - One For Moradi II.wav" WAVE
INDEX 01 00:00:00
 
Лог проверки качества
d:\>d:\aucdtect -d/-m0 d:\zzz\*.wav
auCDtect: CD records authenticity detector, version 0.8.2
Copyright (c) 2004 Oleg Berngardt. All rights reserved.
Copyright (c) 2004 Alexander Djourik. All rights reserved.
------------------------------------------------------------
Processing file: [01. Impression From Silence.wav]
------------------------------------------------------------
This track looks like CDDA with probability 100%
------------------------------------------------------------
Processing file: [02. Impression From Silence II.wav]
------------------------------------------------------------
This track looks like CDDA with probability 100%
------------------------------------------------------------
Processing file: [03. Prooi.wav]
------------------------------------------------------------
This track looks like CDDA with probability 100%
------------------------------------------------------------
Processing file: [04. Something Circles.wav]
------------------------------------------------------------
This track looks like CDDA with probability 100%
------------------------------------------------------------
Processing file: [05. Ancient America.wav]
------------------------------------------------------------
This track looks like CDDA with probability 99%
------------------------------------------------------------
Processing file: [06. Mole Dance.wav]
------------------------------------------------------------
This track looks like CDDA with probability 100%
------------------------------------------------------------
Processing file: [07. Ayshan Brass.wav]
------------------------------------------------------------
This track looks like MPEG with probability 95%
------------------------------------------------------------
Processing file: [08. Baritayle.wav]
------------------------------------------------------------
This track looks like CDDA with probability 100%
------------------------------------------------------------
Processing file: [09. One For Moradi.wav]
------------------------------------------------------------
This track looks like CDDA with probability 100%
------------------------------------------------------------
Processing file: [10. Zeldzaam.wav]
------------------------------------------------------------
This track looks like CDDA with probability 100%
------------------------------------------------------------
Processing file: [11. One For Moradi II.wav]
------------------------------------------------------------
This track looks like CDDA with probability 99%
------------------------------------------------------------
Final Conclusion:
------------------------------------------------------------
These tracks looks like CDDA with probability 100%
Доп. информация:
 
Album Info & Review
All compositions by Hubback & Peijnenburg except 5. & 12. which is based on an Indian folk song
All percussion instruments and sculptures created by Steve Hubback
Recorded and engineered by Ralph Timmermans at Dimruimte Studio in Eindhoven, The Netherlands on 12-12-2008
Produced for FMR by Trevor Taylor
Frontside: painting 24x24 by Rik van Iersel
CD layout: Ewan Rigg
Photo (Steve Hubback): Guus Veldhuis
Photo (Ad Peijnenburg): Cees van de Ven
What a great album! Master percussionist and "sound sculpture artist" Steve Hubback meets Dutch minimalist saxophonist Ad Peijnenburg, for eleven varied pieces of highly creative, invigorating and spiritual music. Hubback is not a rhythmic percussionist per se, but is more interested in the sounds coming forth of his many bells, drums and gongs, while in contrast, Peijnenburg is a very rhythmic player, often resorting to repetitive phrases built around a tonal center.
The title of the first two tracks "Impression From Silence" already give a glimpse of the program: the sensitive and careful creation of sounds around silence. There is no sense of urgency, there is no clear melodic or harmonic structure, but the listening experience is magnificent. Listen to the wail of the sopraninosax on "Prooi", which I already thought sounded like a wounded animal, even before I read the Dutch title, which means "prey", just to let you know how evocative these artists are.
"Something Circles" is almost funky, with Peijnenburg indeed playing a pretty basic circling phrase on his baritone sax. It sounds simple and straightforward, yet juxtaposed to Hubback's floating cymbal work, it results in great effect. "Mole Dance" falls in the same category, yet the short piece is permeated by a bluesy feeling, without being too explicit.
In sum, apart from the brilliant first two pieces, you get nine shorter pieces, full of musical joy, with tribal rhythms, interesting concepts which are never overly extended but kept to their bare essence: a cadence, a feeling, a mood, a timbral exploration : light-footed and fun. An ode to life. In terms of recent reference : it fits well in the same series of other great sax percussion duos : Han & Frode by Bennink & Gjerstad, Nada by Francois Carrier & Michel Lambert, Circle & Line by Donat Fisch and Christian Wolfarth.
Enjoy!
For additional reference, please also check Peijnenburg's duo album with William Parker, called Brooklyn Calling. - Stef, freejazzblog.org
 
Состав
Steve Hubback: sound sculpture
Ad Peijnenburg: baritone and sopranino sax
По всем вопросам пишите личное сообщение пользователю M0p94ok.
08:21
165
Нет комментариев. Ваш будет первым!