Вы используете незарегистрированную версию компонента "Вкладки"!

Поиск

(Free jazz, bop, spoken word) [2 CD] VA · The Revolutionary Hymns (feat. Black Voices, Last Poets, Max Roach, Albert Ayler, Charles Mingus, Ornette Coleman, John Coltrane, etc.) · 1991, FLAC (tracks+.cue), lossless

Треклист:
The Revolutionary Hymns
Общей обложки нет; для каждого диска из бокса — под соответствующим спойлером.
Жанр: free jazz, bop, spoken word · Страна исполнителей: USA
Носитель: 2 CD · Страна-производитель релиза: Germany · Год издания: 1991
Издатель (лейбл): ITM Records · Номер по каталогу: 1450
Аудиокодек: FLAC (*.flac) · Тип рипа: tracks+.cue · Битрейт аудио: lossless
Источник: собственный рип · Наличие сканов в содержимом раздачи: да
Продолжительность: 02:03:07
Треклист:
 
CD One
01. The Black Voices · Listen (0:13)
02. The Last Poets · Black Is Chant (0:57)
03. Charlie Haden Liberation Orchestra · Introduction (3:08)
04. The Last Poets · Pretty Nigger (2:23)
05. Max Roach · Man From South Africa (5:08)
06. The Last Poets · Hands Off (4:02)
07. Archie Shepp · Pickaninny (7:19)
08. The Black Voices · I’ll Stop Calling You Niggers (1:19)
09. The Black Voices · Clowns All Around (1:34)
10. Albert Ayler · Change Has Come (6:12)
11. The Last Poets · Black Wish (1:43)
12. Charles Mingus · Freedom (3:38)
13. The Last Poets · It’s A Trip (4:45)
14. Archie Shepp · I Got It Bad And That Ain’t Good (5:12)
15. The Last Poets · When The Revolution Comes (2:28)
16. Max Roach · Lonesome Lover (7:00)
17. The Last Poets · On The Subway (1:31)
18. Ornette Coleman · Sadness (4:06)
 
Лог создания рипа
Exact Audio Copy V1.0 beta 3 from 29. August 2011
EAC extraction logfile from 15. December 2014, 22:14
Various Artists / The Revolutionary Hymns
Used drive : hp DVD RAM UJ8C2 Adapter: 0 ID: 0
Read mode : Secure
Utilize accurate stream : Yes
Defeat audio cache : Yes
Make use of C2 pointers : No
Read offset correction : 103
Overread into Lead-In and Lead-Out : No
Fill up missing offset samples with silence : Yes
Delete leading and trailing silent blocks : No
Null samples used in CRC calculations : Yes
Used interface : Native Win32 interface for Win NT & 2000
Gap handling : Appended to previous track
Used output format : User Defined Encoder
Selected bitrate : 768 kBit/s
Quality : High
Add ID3 tag : No
Command line compressor : C:\Program Files (x86)\Exact Audio Copy\FLAC\FLAC.EXE
Additional command line options : -6 -V -T "ARTIST=%artist%" -T "TITLE=%title%" -T "ALBUM=%albumtitle%" -T "DATE=%year%" -T "TRACKNUMBER=%tracknr%" -T "GENRE=%genre%" -T "COMMENT=%comment%" -T "BAND=%albuminterpret%" -T "ALBUMARTIST=%albuminterpret%" -T "COMPOSER=%composer%" %haslyrics%--tag-from-file=LYRICS="%lyricsfile%"%haslyrics% -T "DISCNUMBER=%cdnumber%" -T "TOTALDISCS=%totalcds%" -T "TOTALTRACKS=%numtracks%" %hascover%--picture="%coverfile%"%hascover% %source% -o %dest%
TOC of the extracted CD
Track | Start | Length | Start sector | End sector
---------------------------------------------------------
1 | 0:00.00 | 0:13.02 | 0 | 976
2 | 0:13.02 | 0:56.38 | 977 | 5214
3 | 1:09.40 | 3:08.37 | 5215 | 19351
4 | 4:18.02 | 2:22.38 | 19352 | 30039
5 | 6:40.40 | 5:08.00 | 30040 | 53139
6 | 11:48.40 | 4:01.50 | 53140 | 71264
7 | 15:50.15 | 7:18.50 | 71265 | 104164
8 | 23:08.65 | 1:19.12 | 104165 | 110101
9 | 24:28.02 | 1:33.38 | 110102 | 117114
10 | 26:01.40 | 6:11.62 | 117115 | 145001
11 | 32:13.27 | 1:42.38 | 145002 | 152689
12 | 33:55.65 | 3:38.00 | 152690 | 169039
13 | 37:33.65 | 4:45.00 | 169040 | 190414
14 | 42:18.65 | 5:11.47 | 190415 | 213786
15 | 47:30.37 | 2:28.28 | 213787 | 224914
16 | 49:58.65 | 7:00.37 | 224915 | 256451
17 | 56:59.27 | 1:31.13 | 256452 | 263289
18 | 58:30.40 | 4:05.72 | 263290 | 281736
Track 1
Filename F:\Новая папка\The Revolutionary Hymns\01. Listen.wav
Pre-gap length 0:00:02.00
Peak level 67.1 %
Extraction speed 0.7 X
Track quality 100.0 %
Test CRC 883E2D4F
Copy CRC 883E2D4F
Accurately ripped (confidence 1) [8EB60C73] (AR v1)
Copy OK
Track 2
Filename F:\Новая папка\The Revolutionary Hymns\02. Black Is Chant.wav
Peak level 81.6 %
Extraction speed 1.6 X
Track quality 100.0 %
Test CRC D0FA7033
Copy CRC D0FA7033
Accurately ripped (confidence 1) [351C4420] (AR v1)
Copy OK
Track 3
Filename F:\Новая папка\The Revolutionary Hymns\03. Introduction.wav
Peak level 86.8 %
Extraction speed 2.4 X
Track quality 100.0 %
Test CRC 46C9F869
Copy CRC 46C9F869
Accurately ripped (confidence 1) [B7DD17DC] (AR v1)
Copy OK
Track 4
Filename F:\Новая папка\The Revolutionary Hymns\04. Pretty Nigger.wav
Peak level 72.7 %
Extraction speed 2.4 X
Track quality 100.0 %
Test CRC F716BF76
Copy CRC F716BF76
Accurately ripped (confidence 1) [4229F5B3] (AR v1)
Copy OK
Track 5
Filename F:\Новая папка\The Revolutionary Hymns\05. Man From South Africa.wav
Peak level 67.3 %
Extraction speed 2.9 X
Track quality 100.0 %
Test CRC F6E77177
Copy CRC F6E77177
Accurately ripped (confidence 1) [C0545FB7] (AR v1)
Copy OK
Track 6
Filename F:\Новая папка\The Revolutionary Hymns\06. Hands Off.wav
Peak level 80.9 %
Extraction speed 2.3 X
Track quality 99.9 %
Test CRC 934B9C08
Copy CRC 934B9C08
Accurately ripped (confidence 1) [D2A1F75E] (AR v1)
Copy OK
Track 7
Filename F:\Новая папка\The Revolutionary Hymns\07. Pickaninny.wav
Peak level 86.3 %
Extraction speed 3.1 X
Track quality 99.9 %
Test CRC 006AD863
Copy CRC 006AD863
Accurately ripped (confidence 1) [D171E168] (AR v1)
Copy OK
Track 8
Filename F:\Новая папка\The Revolutionary Hymns\08. I’ll Stop Calling You Niggers.wav
Peak level 100.0 %
Extraction speed 2.6 X
Track quality 100.0 %
Test CRC 3421504D
Copy CRC 3421504D
Accurately ripped (confidence 1) [5CF891B5] (AR v1)
Copy OK
Track 9
Filename F:\Новая папка\The Revolutionary Hymns\09. Clowns All Around.wav
Peak level 93.8 %
Extraction speed 2.7 X
Track quality 100.0 %
Test CRC 2FFC8942
Copy CRC 2FFC8942
Accurately ripped (confidence 1) [A8E018D6] (AR v1)
Copy OK
Track 10
Filename F:\Новая папка\The Revolutionary Hymns\10. Change Has Come.wav
Peak level 70.8 %
Extraction speed 3.4 X
Track quality 99.9 %
Test CRC A3B8CCD2
Copy CRC A3B8CCD2
Accurately ripped (confidence 1) [8E5D67EE] (AR v1)
Copy OK
Track 11
Filename F:\Новая папка\The Revolutionary Hymns\11. Black Wish.wav
Peak level 64.5 %
Extraction speed 2.9 X
Track quality 100.0 %
Test CRC DBEAF7C4
Copy CRC DBEAF7C4
Accurately ripped (confidence 1) [F22FCC76] (AR v1)
Copy OK
Track 12
Filename F:\Новая папка\The Revolutionary Hymns\12. Freedom.wav
Peak level 100.0 %
Extraction speed 3.6 X
Track quality 100.0 %
Test CRC FFF04287
Copy CRC FFF04287
Accurately ripped (confidence 1) [1CC3C7D8] (AR v1)
Copy OK
Track 13
Filename F:\Новая папка\The Revolutionary Hymns\13. It’s A Trip.wav
Peak level 84.3 %
Extraction speed 3.7 X
Track quality 100.0 %
Test CRC C1BF0BB7
Copy CRC C1BF0BB7
Accurately ripped (confidence 1) [9863BABB] (AR v1)
Copy OK
Track 14
Filename F:\Новая папка\The Revolutionary Hymns\14. I Got It Bad And That Ain’t Good.wav
Peak level 55.5 %
Extraction speed 4.0 X
Track quality 100.0 %
Test CRC 6768A735
Copy CRC 6768A735
Accurately ripped (confidence 1) [F9AD3D67] (AR v1)
Copy OK
Track 15
Filename F:\Новая папка\The Revolutionary Hymns\15. When The Revolution Comes.wav
Peak level 71.3 %
Extraction speed 3.1 X
Track quality 99.9 %
Test CRC 9D684715
Copy CRC 9D684715
Accurately ripped (confidence 1) [24C52949] (AR v1)
Copy OK
Track 16
Filename F:\Новая папка\The Revolutionary Hymns\16. Lonesome Lover.wav
Peak level 78.7 %
Extraction speed 4.5 X
Track quality 100.0 %
Test CRC ADFABE02
Copy CRC ADFABE02
Accurately ripped (confidence 1) [A57A0BEA] (AR v1)
Copy OK
Track 17
Filename F:\Новая папка\The Revolutionary Hymns\17. On The Subway.wav
Peak level 61.8 %
Extraction speed 3.0 X
Track quality 100.0 %
Test CRC E3A39ADE
Copy CRC E3A39ADE
Accurately ripped (confidence 1) [29B14715] (AR v1)
Copy OK
Track 18
Filename F:\Новая папка\The Revolutionary Hymns\18. Sadness.wav
Peak level 42.4 %
Extraction speed 4.6 X
Track quality 100.0 %
Test CRC 1CC1F47A
Copy CRC 1CC1F47A
Accurately ripped (confidence 1) [9B09F7C7] (AR v1)
Copy OK
All tracks accurately ripped
No errors occurred
End of status report
==== Log checksum 38754E5D3D77367567D08B7BF351E0D5A64C9E84629FACA178A4BFBBA2663E38 ====
 
Содержание индексной карты (.CUE)
REM DATE 1991
REM DISCID BE0EAC12
REM COMMENT "ExactAudioCopy v1.0b3"
CATALOG 0000000000000
PERFORMER "Various Artists"
TITLE "The Revolutionary Hymns"
FILE "01. Listen.wav" WAVE
TRACK 01 AUDIO
TITLE "Listen"
PERFORMER "The Black Voices"
INDEX 01 00:00:00
FILE "02. Black Is Chant.wav" WAVE
TRACK 02 AUDIO
TITLE "Black Is Chant"
PERFORMER "The Last Poets"
INDEX 01 00:00:00
FILE "03. Introduction.wav" WAVE
TRACK 03 AUDIO
TITLE "Introduction"
PERFORMER "Charlie Haden Liberation Orchestra"
INDEX 01 00:00:00
FILE "04. Pretty Nigger.wav" WAVE
TRACK 04 AUDIO
TITLE "Pretty Nigger"
PERFORMER "The Last Poets"
INDEX 01 00:00:00
FILE "05. Man From South Africa.wav" WAVE
TRACK 05 AUDIO
TITLE "Man From South Africa"
PERFORMER "Max Roach"
INDEX 01 00:00:00
FILE "06. Hands Off.wav" WAVE
TRACK 06 AUDIO
TITLE "Hands Off"
PERFORMER "The Last Poets"
INDEX 01 00:00:00
FILE "07. Pickaninny.wav" WAVE
TRACK 07 AUDIO
TITLE "Pickaninny"
PERFORMER "Archie Shepp"
INDEX 01 00:00:00
FILE "08. I’ll Stop Calling You Niggers.wav" WAVE
TRACK 08 AUDIO
TITLE "I’ll Stop Calling You Niggers"
PERFORMER "The Black Voices"
INDEX 01 00:00:00
FILE "09. Clowns All Around.wav" WAVE
TRACK 09 AUDIO
TITLE "Clowns All Around"
PERFORMER "The Black Voices"
INDEX 01 00:00:00
FILE "10. Change Has Come.wav" WAVE
TRACK 10 AUDIO
TITLE "Change Has Come"
PERFORMER "Albert Ayler"
INDEX 01 00:00:00
FILE "11. Black Wish.wav" WAVE
TRACK 11 AUDIO
TITLE "Black Wish"
PERFORMER "The Last Poets"
INDEX 01 00:00:00
FILE "12. Freedom.wav" WAVE
TRACK 12 AUDIO
TITLE "Freedom"
PERFORMER "Charles Mingus"
INDEX 01 00:00:00
FILE "13. It’s A Trip.wav" WAVE
TRACK 13 AUDIO
TITLE "It’s A Trip"
PERFORMER "The Last Poets"
INDEX 01 00:00:00
FILE "14. I Got It Bad And That Ain’t Good.wav" WAVE
TRACK 14 AUDIO
TITLE "I Got It Bad And That Ain’t Good"
PERFORMER "Archie Shepp"
INDEX 01 00:00:00
FILE "15. When The Revolution Comes.wav" WAVE
TRACK 15 AUDIO
TITLE "When The Revolution Comes"
PERFORMER "The Last Poets"
INDEX 01 00:00:00
FILE "16. Lonesome Lover.wav" WAVE
TRACK 16 AUDIO
TITLE "Lonesome Lover"
PERFORMER "Max Roach"
INDEX 01 00:00:00
FILE "17. On The Subway.wav" WAVE
TRACK 17 AUDIO
TITLE "On The Subway"
PERFORMER "The Last Poets"
INDEX 01 00:00:00
FILE "18. Sadness.wav" WAVE
TRACK 18 AUDIO
TITLE "Sadness"
PERFORMER "Ornette Coleman"
INDEX 01 00:00:00
 
CD Two
01. The Black Voices · Listen (0:14)
02. The Last Poets · Run Nigger (1:10)
03. Charlie Haden Liberation Orchestra · We Shall Overcome (1:18)
04. The Last Poets · Wake Up, Niggers (2:45)
05. Max Roach · It’s Time (6:41)
06. The Last Poets · Niggers Are Scared Of Revolution (5:13)
07. Archie Shepp · Attica Blues (4:47)
08. The Last Poets · Just Because (1:30)
09. Charlie Haden Liberation Orchestra · Song For Che (9:33)
10. The Black Voices · The Meek (0:06)
11. Albert Ayler · Holy Ghost (7:27)
12. The Last Poets · Birds Words (6:12)
13. The Black Voices · Nearer My God To Thee (2:34)
14. John Coltrane · A Love Supreme (7:38)
15. The Last Poets · Jazz Is (3:22)
 
Лог создания рипа
Exact Audio Copy V1.0 beta 3 from 29. August 2011
EAC extraction logfile from 15. December 2014, 23:55
Various Artists / The Revolutionary Hymns
Used drive : hp DVD RAM UJ8C2 Adapter: 0 ID: 0
Read mode : Secure
Utilize accurate stream : Yes
Defeat audio cache : Yes
Make use of C2 pointers : No
Read offset correction : 103
Overread into Lead-In and Lead-Out : No
Fill up missing offset samples with silence : Yes
Delete leading and trailing silent blocks : No
Null samples used in CRC calculations : Yes
Used interface : Native Win32 interface for Win NT & 2000
Gap handling : Appended to previous track
Used output format : User Defined Encoder
Selected bitrate : 768 kBit/s
Quality : High
Add ID3 tag : No
Command line compressor : C:\Program Files (x86)\Exact Audio Copy\FLAC\FLAC.EXE
Additional command line options : -6 -V -T "ARTIST=%artist%" -T "TITLE=%title%" -T "ALBUM=%albumtitle%" -T "DATE=%year%" -T "TRACKNUMBER=%tracknr%" -T "GENRE=%genre%" -T "COMMENT=%comment%" -T "BAND=%albuminterpret%" -T "ALBUMARTIST=%albuminterpret%" -T "COMPOSER=%composer%" %haslyrics%--tag-from-file=LYRICS="%lyricsfile%"%haslyrics% -T "DISCNUMBER=%cdnumber%" -T "TOTALDISCS=%totalcds%" -T "TOTALTRACKS=%numtracks%" %hascover%--picture="%coverfile%"%hascover% %source% -o %dest%
TOC of the extracted CD
Track | Start | Length | Start sector | End sector
---------------------------------------------------------
1 | 0:00.00 | 0:13.47 | 0 | 1021
2 | 0:13.47 | 1:09.48 | 1022 | 6244
3 | 1:23.20 | 1:17.70 | 6245 | 12089
4 | 2:41.15 | 2:44.47 | 12090 | 24436
5 | 5:25.62 | 6:41.28 | 24437 | 54539
6 | 12:07.15 | 5:12.60 | 54540 | 77999
7 | 17:20.00 | 4:47.25 | 78000 | 99549
8 | 22:07.25 | 1:30.25 | 99550 | 106324
9 | 23:37.50 | 9:33.00 | 106325 | 149299
10 | 33:10.50 | 0:05.42 | 149300 | 149716
11 | 33:16.17 | 7:27.33 | 149717 | 183274
12 | 40:43.50 | 6:12.12 | 183275 | 211186
13 | 46:55.62 | 2:34.25 | 211187 | 222761
14 | 49:30.12 | 7:38.25 | 222762 | 257136
15 | 57:08.37 | 3:21.63 | 257137 | 272274
Track 1
Filename F:\VA · The Revolutionary Hymns [1991]\CD Two\The Revolutionary Hymns\01. Listen.wav
Pre-gap length 0:00:02.00
Peak level 65.3 %
Extraction speed 0.4 X
Track quality 99.2 %
Test CRC 46318DD4
Copy CRC 46318DD4
Accurately ripped (confidence 1) [A21BE1B4] (AR v1)
Copy OK
Track 2
Filename F:\VA · The Revolutionary Hymns [1991]\CD Two\The Revolutionary Hymns\02. Run Nigger.wav
Peak level 90.1 %
Extraction speed 1.7 X
Track quality 100.0 %
Test CRC 9A3643B0
Copy CRC 9A3643B0
Accurately ripped (confidence 1) [70EDBC83] (AR v1)
Copy OK
Track 3
Filename F:\VA · The Revolutionary Hymns [1991]\CD Two\The Revolutionary Hymns\03. We Shall Overcome.wav
Peak level 72.0 %
Extraction speed 1.8 X
Track quality 100.0 %
Test CRC D3CB38E5
Copy CRC D3CB38E5
Accurately ripped (confidence 1) [DBBE22E3] (AR v1)
Copy OK
Track 4
Filename F:\VA · The Revolutionary Hymns [1991]\CD Two\The Revolutionary Hymns\04. Wake Up, Niggers.wav
Peak level 88.3 %
Extraction speed 2.4 X
Track quality 100.0 %
Test CRC 2FE64C3C
Copy CRC 2FE64C3C
Accurately ripped (confidence 1) [FF5F7A08] (AR v1)
Copy OK
Track 5
Filename F:\VA · The Revolutionary Hymns [1991]\CD Two\The Revolutionary Hymns\05. It’s Time.wav
Peak level 97.3 %
Extraction speed 2.8 X
Track quality 99.9 %
Test CRC EC9A5C1C
Copy CRC EC9A5C1C
Accurately ripped (confidence 1) [54EC4D4F] (AR v1)
Copy OK
Track 6
Filename F:\VA · The Revolutionary Hymns [1991]\CD Two\The Revolutionary Hymns\06. Niggers Are Scared Of Revolution.wav
Peak level 91.2 %
Extraction speed 0.3 X
Track quality 99.9 %
Test CRC 47BFD202
Copy CRC 47BFD202
Accurately ripped (confidence 1) [6F7082BF] (AR v1)
Copy OK
Track 7
Filename F:\VA · The Revolutionary Hymns [1991]\CD Two\The Revolutionary Hymns\07. Attica Blues.wav
Peak level 97.3 %
Extraction speed 3.4 X
Track quality 100.0 %
Test CRC C1ED3B34
Copy CRC C1ED3B34
Accurately ripped (confidence 1) [E6546484] (AR v1)
Copy OK
Track 8
Filename F:\VA · The Revolutionary Hymns [1991]\CD Two\The Revolutionary Hymns\08. Just Because.wav
Peak level 92.9 %
Extraction speed 2.7 X
Track quality 100.0 %
Test CRC 59C62EE0
Copy CRC 59C62EE0
Accurately ripped (confidence 1) [10955260] (AR v1)
Copy OK
Track 9
Filename F:\VA · The Revolutionary Hymns [1991]\CD Two\The Revolutionary Hymns\09. Song For Che.wav
Peak level 97.3 %
Extraction speed 3.8 X
Track quality 99.9 %
Test CRC 3824510E
Copy CRC 3824510E
Accurately ripped (confidence 1) [10AE7D51] (AR v1)
Copy OK
Track 10
Filename F:\VA · The Revolutionary Hymns [1991]\CD Two\The Revolutionary Hymns\10. The Meek.wav
Peak level 78.5 %
Extraction speed 0.5 X
Track quality 100.0 %
Test CRC 52726FCA
Copy CRC 52726FCA
Track not present in AccurateRip database
Copy OK
Track 11
Filename F:\VA · The Revolutionary Hymns [1991]\CD Two\The Revolutionary Hymns\11. Holy Ghost.wav
Peak level 88.6 %
Extraction speed 4.2 X
Track quality 100.0 %
Test CRC 248044A1
Copy CRC 248044A1
Accurately ripped (confidence 1) [17136CD2] (AR v1)
Copy OK
Track 12
Filename F:\VA · The Revolutionary Hymns [1991]\CD Two\The Revolutionary Hymns\12. Birds Words.wav
Peak level 92.1 %
Extraction speed 4.1 X
Track quality 99.9 %
Test CRC 999B5136
Copy CRC 999B5136
Accurately ripped (confidence 1) [42913B04] (AR v1)
Copy OK
Track 13
Filename F:\VA · The Revolutionary Hymns [1991]\CD Two\The Revolutionary Hymns\13. Nearer My God To Thee.wav
Peak level 90.5 %
Extraction speed 3.4 X
Track quality 99.9 %
Test CRC 000188FE
Copy CRC 000188FE
Accurately ripped (confidence 1) [889A9C9D] (AR v1)
Copy OK
Track 14
Filename F:\VA · The Revolutionary Hymns [1991]\CD Two\The Revolutionary Hymns\14. A Love Supreme.wav
Peak level 77.9 %
Extraction speed 4.8 X
Track quality 100.0 %
Test CRC AC405FF6
Copy CRC AC405FF6
Accurately ripped (confidence 1) [725CE483] (AR v1)
Copy OK
Track 15
Filename F:\VA · The Revolutionary Hymns [1991]\CD Two\The Revolutionary Hymns\15. Jazz Is.wav
Peak level 82.2 %
Extraction speed 1.7 X
Track quality 99.9 %
Test CRC 652BD24D
Copy CRC 652BD24D
Accurately ripped (confidence 1) [31A360AD] (AR v1)
Copy OK
14 трек(и) скопированы точно
1 трек(и) не содержатся в базе AccurateRip
Some tracks could not be verified as accurate
No errors occurred
End of status report
==== Log checksum BAB6419BEEC05EA00131797E7E147760928D74C31CA0CF810FE762C01610F85C ====
 
Содержание индексной карты (.CUE)
REM DATE 1991
REM DISCID D10E2E0F
REM COMMENT "ExactAudioCopy v1.0b3"
CATALOG 0000000000000
PERFORMER "Various Artists"
TITLE "The Revolutionary Hymns"
FILE "01. Listen.wav" WAVE
TRACK 01 AUDIO
TITLE "Listen"
PERFORMER "The Black Voices"
INDEX 01 00:00:00
FILE "02. Run Nigger.wav" WAVE
TRACK 02 AUDIO
TITLE "Run Nigger"
PERFORMER "The Last Poets"
INDEX 01 00:00:00
FILE "03. We Shall Overcome.wav" WAVE
TRACK 03 AUDIO
TITLE "We Shall Overcome"
PERFORMER "Charlie Haden Liberation Orchestra"
INDEX 01 00:00:00
FILE "04. Wake Up, Niggers.wav" WAVE
TRACK 04 AUDIO
TITLE "Wake Up, Niggers"
PERFORMER "The Last Poets"
INDEX 01 00:00:00
FILE "05. It’s Time.wav" WAVE
TRACK 05 AUDIO
TITLE "It’s Time"
PERFORMER "Max Roach"
INDEX 01 00:00:00
FILE "06. Niggers Are Scared Of Revolution.wav" WAVE
TRACK 06 AUDIO
TITLE "Niggers Are Scared Of Revolution"
PERFORMER "The Last Poets"
INDEX 01 00:00:00
FILE "07. Attica Blues.wav" WAVE
TRACK 07 AUDIO
TITLE "Attica Blues"
PERFORMER "Archie Shepp"
INDEX 01 00:00:00
FILE "08. Just Because.wav" WAVE
TRACK 08 AUDIO
TITLE "Just Because"
PERFORMER "The Last Poets"
INDEX 01 00:00:00
FILE "09. Song For Che.wav" WAVE
TRACK 09 AUDIO
TITLE "Song For Che"
PERFORMER "Charlie Haden Liberation Orchestra"
INDEX 01 00:00:00
FILE "10. The Meek.wav" WAVE
TRACK 10 AUDIO
TITLE "The Meek"
PERFORMER "The Black Voices"
INDEX 01 00:00:00
FILE "11. Holy Ghost.wav" WAVE
TRACK 11 AUDIO
TITLE "Holy Ghost"
PERFORMER "Albert Ayler"
INDEX 01 00:00:00
FILE "12. Birds Words.wav" WAVE
TRACK 12 AUDIO
TITLE "Birds Words"
PERFORMER "The Last Poets"
INDEX 01 00:00:00
FILE "13. Nearer My God To Thee.wav" WAVE
TRACK 13 AUDIO
TITLE "Nearer My God To Thee"
PERFORMER "The Black Voices"
INDEX 01 00:00:00
FILE "14. A Love Supreme.wav" WAVE
TRACK 14 AUDIO
TITLE "A Love Supreme"
PERFORMER "John Coltrane"
INDEX 01 00:00:00
FILE "15. Jazz Is.wav" WAVE
TRACK 15 AUDIO
TITLE "Jazz Is"
PERFORMER "The Last Poets"
INDEX 01 00:00:00
По всем вопросам пишите личное сообщение пользователю M0p94ok.
08:20
277
Нет комментариев. Ваш будет первым!