Вы используете незарегистрированную версию компонента "Вкладки"!

Поиск

(Avant-Garde Jazz, Free Improvisation, Modern Composition, FMR) [CD] Pat Thomas (w/ Orphy Robinson, Philipp Wachsmann, Alexander Hawkins, Dominic Lash a.o.) - 4 Compositions For Orchestra - 2010, FLAC (tracks+.cue), lossless

(Avant-Garde Jazz, Free Improvisation, Modern Composition, FMR) [CD] Pat Thomas (w/ Orphy Robinson, Philipp Wachsmann, Alexander Hawkins, Dominic Lash a.o.) - 4 Compositions For Orchestra - 2010, FLAC (tracks+.cue), lossless
Треклист:
Pat Thomas / 4 Compositions For Orchestra
Жанр: Avant-Garde Jazz, Free Improvisation, Modern Composition, FMR
Носитель: CD
Страна-производитель диска (релиза): UK
Год издания: 2010
Издатель (лейбл): FMR Records
Номер по каталогу: FMRCD293-0810
Страна исполнителя (группы): UK
Аудиокодек: FLAC (*.flac)
Тип рипа: tracks+.cue
Битрейт аудио: lossless
Продолжительность: 55:52
Источник (релизер): свой фирменный диск
Наличие сканов в содержимом раздачи:
Треклист:
1. Composition 786
2. Tales
3. Shock Tactics
4. Concerto For Philipp Wachsmann
 
Лог создания рипа
Exact Audio Copy V1.0 beta 3 from 29. August 2011
EAC extraction logfile from 22. November 2014, 19:14
Pat Thomas / 4 Compositions For Orchestra
Used drive : PIONEER DVD-RW DVR-115D Adapter: 0 ID: 0
Read mode : Secure
Utilize accurate stream : Yes
Defeat audio cache : Yes
Make use of C2 pointers : No
Read offset correction : 48
Overread into Lead-In and Lead-Out : No
Fill up missing offset samples with silence : Yes
Delete leading and trailing silent blocks : No
Null samples used in CRC calculations : Yes
Used interface : Installed external ASPI interface
Gap handling : Appended to previous track
Used output format : User Defined Encoder
Selected bitrate : 768 kBit/s
Quality : High
Add ID3 tag : No
Command line compressor : C:\Program Files\Exact Audio Copy\Flac\flac.exe
Additional command line options : -6 -V -T "ARTIST=%artist%" -T "TITLE=%title%" -T "ALBUM=%albumtitle%" -T "DATE=%year%" -T "TRACKNUMBER=%tracknr%" -T "GENRE=%genre%" -T "COMMENT=%comment%" -T "BAND=%albuminterpret%" -T "COMPOSER=%composer%" %haslyrics%--tag-from-file=LYRICS="%lyricsfile%"%haslyrics% -T "DISCNUMBER=%cdnumber%" -T "TOTALDISCS=%totalcds%" -T "TOTALTRACKS=%numtracks%" %hascover%--picture="%coverfile%"%hascover% %source% -o %dest%
TOC of the extracted CD
Track | Start | Length | Start sector | End sector
---------------------------------------------------------
1 | 0:00.00 | 18:12.51 | 0 | 81950
2 | 18:12.51 | 16:08.40 | 81951 | 154590
3 | 34:21.16 | 8:13.42 | 154591 | 191607
4 | 42:34.58 | 13:16.57 | 191608 | 251364
Track 1
Filename D:\zzz\01 - Composition 786.wav
Pre-gap length 0:00:02.00
Peak level 99.9 %
Extraction speed 5.5 X
Track quality 100.0 %
Test CRC 4046A405
Copy CRC 4046A405
Track not present in AccurateRip database
Copy OK
Track 2
Filename D:\zzz\02 - Tales.wav
Pre-gap length 0:00:02.00
Peak level 99.9 %
Extraction speed 7.0 X
Track quality 100.0 %
Test CRC 6850DB23
Copy CRC 6850DB23
Track not present in AccurateRip database
Copy OK
Track 3
Filename D:\zzz\03 - Shock Tactics.wav
Pre-gap length 0:00:02.00
Peak level 94.4 %
Extraction speed 7.5 X
Track quality 100.0 %
Test CRC E8EA71F6
Copy CRC E8EA71F6
Track not present in AccurateRip database
Copy OK
Track 4
Filename D:\zzz\04 - Concerto For Philipp Wachsmann.wav
Pre-gap length 0:00:02.00
Peak level 99.9 %
Extraction speed 8.4 X
Track quality 100.0 %
Test CRC 49815DEA
Copy CRC 49815DEA
Track not present in AccurateRip database
Copy OK
None of the tracks are present in the AccurateRip database
No errors occurred
End of status report
==== Log checksum A31A959845DBB94DD85BD846DC45B9C3DC040675E7C3DC05DD58931A1F11F829 ====
 
Содержание индексной карты (.CUE)
REM GENRE "Avant-Garde Jazz"
REM DATE 2010
REM DISCID 2D0D1704
REM COMMENT "ExactAudioCopy v1.0b3"
PERFORMER "Pat Thomas"
TITLE "4 Compositions For Orchestra"
FILE "01 - Composition 786.wav" WAVE
TRACK 01 AUDIO
TITLE "Composition 786"
PERFORMER "Pat Thomas"
FLAGS DCP
INDEX 01 00:00:00
TRACK 02 AUDIO
TITLE "Tales"
PERFORMER "Pat Thomas"
FLAGS DCP
INDEX 00 18:10:51
FILE "02 - Tales.wav" WAVE
INDEX 01 00:00:00
TRACK 03 AUDIO
TITLE "Shock Tactics"
PERFORMER "Pat Thomas"
FLAGS DCP
INDEX 00 16:06:40
FILE "03 - Shock Tactics.wav" WAVE
INDEX 01 00:00:00
TRACK 04 AUDIO
TITLE "Concerto For Philipp Wachsmann"
PERFORMER "Pat Thomas"
FLAGS DCP
INDEX 00 08:11:42
FILE "04 - Concerto For Philipp Wachsmann.wav" WAVE
INDEX 01 00:00:00
 
Лог проверки качества
d:\>d:\aucdtect -d/-m0 d:\zzz\*.wav
auCDtect: CD records authenticity detector, version 0.8.2
Copyright (c) 2004 Oleg Berngardt. All rights reserved.
Copyright (c) 2004 Alexander Djourik. All rights reserved.
------------------------------------------------------------
Processing file: [01. Composition 786.wav]
------------------------------------------------------------
This track looks like CDDA with probability 100%
------------------------------------------------------------
Processing file: [02. Tales.wav]
------------------------------------------------------------
This track looks like CDDA with probability 100%
------------------------------------------------------------
Processing file: [03. Shock Tactics.wav]
------------------------------------------------------------
This track looks like CDDA with probability 100%
------------------------------------------------------------
Processing file: [04. Concerto For Philipp Wachsmann.wav]
------------------------------------------------------------
This track looks like CDDA with probability 100%
------------------------------------------------------------
Final Conclusion:
------------------------------------------------------------
These tracks looks like CDDA with probability 100%
Доп. информация:
 
Album Info
Recorded at the Jacqueline du Pre Music Room on 27 October 2007
Recorded and mastered: Chris Trent
Produced for FMR by Trevor Taylor
Design & photography: Paul Medley
Liner notes: Pat Thomas, Malcolm Atkins 2010
 
Состав
Soloists:
Tunde Jegede: kora
Ahmed Abdul Rahman: erhu
Vida Kashizadeh: voice
Hafeez al-Karrar: darabuka
Harvir Sohata: tabla
Steve Williamson: soprano sax
Orphy Robinson: steel pan
Philipp Wachsmann: violin
Miles Doubleday: narration
Oxford Improvisers Orchestra:
Malcolm Atkins, Camilla Cancantata, Trish Elphinstone, Bruno Guastalla, Darren Hasson-Davies, Alexander Hawkins (1,3), Chris Hills, Dominic Lash, Pete Mcphail, Hannah Marshall, Paul Medley, Francesco Serpetti (2,4), Nick Sorenson, David Stent, Chris Stubbs, Evan Thomas
По всем вопросам пишите личное сообщение пользователю M0p94ok.
08:21
162
Нет комментариев. Ваш будет первым!