Поиск

(Avant-Garde Jazz, Free Improvisation, FMP) [CD-R] Rüdiger Carl & Hans Reichel (Rudiger) - Buben ... Plus - 1995, FLAC (tracks+.cue), lossless

(Avant-Garde Jazz, Free Improvisation, FMP) [CD-R] Rüdiger Carl & Hans Reichel (Rudiger) - Buben ... Plus - 1995, FLAC (tracks+.cue), lossless
Треклист:
Rüdiger Carl & Hans Reichel / Buben ... Plus
Жанр: Avant-Garde Jazz, Free Improvisation, FMP
Носитель: CD-R
Страна-производитель диска (релиза): Germany
Год издания: 1995
Издатель (лейбл): FMP
Номер по каталогу: FMP CD 78
Страна исполнителя (группы): Germany
Аудиокодек: FLAC (*.flac)
Тип рипа: tracks+.cue
Битрейт аудио: lossless
Продолжительность: 01:13:41
Источник (релизер): What.cd, 6060842
Наличие сканов в содержимом раздачи: нет
Треклист:
01. First Aid 4:04
02. Moon Over Wichlinghausen 2:40
03. Bubenziehen 2:09
04. Beneath The Future 4:05
05. Kant 7 2:26
06. Tinka 2:16
07. Tentacle, To Boot 2:28
08. Fettwalzer 3:02
09. Nicht Die Falsche Dame Drücken 2:11
10. The Truth About A-Minor 3:02
11. Berlin 1:35
12. Buben 5:04
13. Rollo Und Bedeutung 2:03
14. Kipper Kids 2:37
15. Der Erica 4:00
16. Quiet Land 3:20
17. Kickern Mit Manne 2:57
18. Damen 2:57
19. Wuppertal, Wuppertal 1:52
20. The Elk 2:22
21. Gernebreit 2:10
22. Pick-Pick Elisabeth 3:16
23. The Last Beef Contract 4:22
24. Vande Vannet 5:57
 
Album info

Idiophone [Daxophone] – Hans Reichel
(tracks: 1, 3, 5, 7, 9, 11, 13, 15, 17, 19, 21, 23)



Accordion – Rüdiger Carl
(tracks: 1, 3, 5, 7, 9, 11, 13, 15, 17, 19, 21, 23)
Concertina – Rüdiger Carl (tracks: 2, 4, 6, 8, 10, 12, 14, 16, 18, 20, 22, 24)
Violin – Hans Reichel (tracks: 2, 4, 6, 8, 10, 12, 14, 16, 18, 20, 22, 24)
Composed By – Reichel*, Carl*
Liner Notes – Steve Beresford
Liner Notes [Translation] – Wulf Teichmann
Mastered By – Jonas Bergler
Producer – Jost Gebers
"Buben" (titles bearing even numbers) recorded in Wuppertal in May 1978. The tapes have been neither cut nor remixed.
"Plus" (titles bearing odd numbers) in Wuppertal on 14th July 1994. All tracks have been recorded as played.
 
Logs
 
Лог создания рипа
X Lossless Decoder version 20130407 (143.0)
XLD extraction logfile from 2013-05-28 22:10:58 +0400
Rüdiger Carl, Hans Reichel / Buben... Plus
Used drive : HL-DT-ST DVDRW GX30N (revision RP09)
Media type : CD-Recordable
Ripper mode : XLD Secure Ripper
Disable audio cache : OK for the drive with a cache less than 1375KiB
Make use of C2 pointers : NO
Read offset correction : 6
Max retry count : 20
Gap status : Analyzed, Appended
TOC of the extracted CD
Track | Start | Length | Start sector | End sector
---------------------------------------------------------
1 | 00:00:00 | 04:07:22 | 0 | 18546
2 | 04:07:22 | 02:42:00 | 18547 | 30696
3 | 06:49:22 | 02:11:00 | 30697 | 40521
4 | 09:00:22 | 04:06:63 | 40522 | 59034
5 | 13:07:10 | 02:28:00 | 59035 | 70134
6 | 15:35:10 | 02:17:50 | 70135 | 80459
7 | 17:52:60 | 02:30:27 | 80460 | 91736
8 | 20:23:12 | 03:03:43 | 91737 | 105504
9 | 23:26:55 | 02:13:27 | 105505 | 115506
10 | 25:40:07 | 03:03:53 | 115507 | 129284
11 | 28:43:60 | 01:36:37 | 129285 | 136521
12 | 30:20:22 | 05:05:38 | 136522 | 159434
13 | 35:25:60 | 02:04:50 | 159435 | 168784
14 | 37:30:35 | 02:39:00 | 168785 | 180709
15 | 40:09:35 | 04:02:30 | 180710 | 198889
16 | 44:11:65 | 03:22:12 | 198890 | 214051
17 | 47:34:02 | 02:59:25 | 214052 | 227501
18 | 50:33:27 | 02:58:58 | 227502 | 240909
19 | 53:32:10 | 01:54:07 | 240910 | 249466
20 | 55:26:17 | 02:24:03 | 249467 | 260269
21 | 57:50:20 | 02:12:27 | 260270 | 270196
22 | 60:02:47 | 03:17:50 | 270197 | 285021
23 | 63:20:22 | 04:24:33 | 285022 | 304854
24 | 67:44:55 | 05:56:62 | 304855 | 331616
AccurateRip Summary
Disc not found in AccurateRip DB.
All Tracks
Album gain : 1.26 dB
Peak : 0.995850
Statistics
Read error : 0
Jitter error (maybe fixed) : 0
Retry sector count : 0
Damaged sector count : 0
Track 01
Filename : /Users/anch/Music/FLAC/Rudiger Carl, Hans Reichel - 1995 - Buben... Plus [FLAC]/01 - First Aid.flac
/Users/anch/Music/FLAC/Rudiger Carl, Hans Reichel - 1995 - Buben... Plus [MP3 320]/01 - First Aid.mp3
/Users/anch/Music/FLAC/Rudiger Carl, Hans Reichel - 1995 - Buben... Plus [MP3 V0]/01 - First Aid.mp3
Pre-gap length : 00:02:00
Track gain : 1.15 dB
Peak : 0.657104
CRC32 hash (test run) : DBC89E04
CRC32 hash : DBC89E04
CRC32 hash (skip zero) : 2764A928
AccurateRip v1 signature : 26FDA175
AccurateRip v2 signature : A4686BBA
->Track not present in AccurateRip database.
Statistics
Read error : 0
Jitter error (maybe fixed) : 0
Retry sector count : 0
Damaged sector count : 0
Track 02
Filename : /Users/anch/Music/FLAC/Rudiger Carl, Hans Reichel - 1995 - Buben... Plus [FLAC]/02 - Moon Over Wichlinghausen.flac
/Users/anch/Music/FLAC/Rudiger Carl, Hans Reichel - 1995 - Buben... Plus [MP3 320]/02 - Moon Over Wichlinghausen.mp3
/Users/anch/Music/FLAC/Rudiger Carl, Hans Reichel - 1995 - Buben... Plus [MP3 V0]/02 - Moon Over Wichlinghausen.mp3
Pre-gap length : 00:01:74
Track gain : 1.10 dB
Peak : 0.609436
CRC32 hash (test run) : 6437011C
CRC32 hash : 6437011C
CRC32 hash (skip zero) : 39C38A58
AccurateRip v1 signature : E4D39E37
AccurateRip v2 signature : 2A410670
->Track not present in AccurateRip database.
Statistics
Read error : 0
Jitter error (maybe fixed) : 0
Retry sector count : 0
Damaged sector count : 0
Track 03
Filename : /Users/anch/Music/FLAC/Rudiger Carl, Hans Reichel - 1995 - Buben... Plus [FLAC]/03 - Bubenziehen.flac
/Users/anch/Music/FLAC/Rudiger Carl, Hans Reichel - 1995 - Buben... Plus [MP3 320]/03 - Bubenziehen.mp3
/Users/anch/Music/FLAC/Rudiger Carl, Hans Reichel - 1995 - Buben... Plus [MP3 V0]/03 - Bubenziehen.mp3
Pre-gap length : 00:01:74
Track gain : 0.28 dB
Peak : 0.672394
CRC32 hash (test run) : 275D7FFE
CRC32 hash : 275D7FFE
CRC32 hash (skip zero) : E2082D24
AccurateRip v1 signature : 69734ED6
AccurateRip v2 signature : 507CC959
->Track not present in AccurateRip database.
Statistics
Read error : 0
Jitter error (maybe fixed) : 0
Retry sector count : 0
Damaged sector count : 0
Track 04
Filename : /Users/anch/Music/FLAC/Rudiger Carl, Hans Reichel - 1995 - Buben... Plus [FLAC]/04 - Beneath The Future.flac
/Users/anch/Music/FLAC/Rudiger Carl, Hans Reichel - 1995 - Buben... Plus [MP3 320]/04 - Beneath The Future.mp3
/Users/anch/Music/FLAC/Rudiger Carl, Hans Reichel - 1995 - Buben... Plus [MP3 V0]/04 - Beneath The Future.mp3
Pre-gap length : 00:01:74
Track gain : 1.09 dB
Peak : 0.950043
CRC32 hash (test run) : 0FBC55EC
CRC32 hash : 0FBC55EC
CRC32 hash (skip zero) : 75F0F97E
AccurateRip v1 signature : 6D4EC710
AccurateRip v2 signature : 5ADEC51D
->Track not present in AccurateRip database.
Statistics
Read error : 0
Jitter error (maybe fixed) : 0
Retry sector count : 0
Damaged sector count : 0
Track 05
Filename : /Users/anch/Music/FLAC/Rudiger Carl, Hans Reichel - 1995 - Buben... Plus [FLAC]/05 - Kant.flac
/Users/anch/Music/FLAC/Rudiger Carl, Hans Reichel - 1995 - Buben... Plus [MP3 320]/05 - Kant.mp3
/Users/anch/Music/FLAC/Rudiger Carl, Hans Reichel - 1995 - Buben... Plus [MP3 V0]/05 - Kant.mp3
Pre-gap length : 00:01:74
Track gain : 0.37 dB
Peak : 0.752686
CRC32 hash (test run) : 482781F1
CRC32 hash : 482781F1
CRC32 hash (skip zero) : 1009198B
AccurateRip v1 signature : 5B752D13
AccurateRip v2 signature : 97B0B369
->Track not present in AccurateRip database.
Statistics
Read error : 0
Jitter error (maybe fixed) : 0
Retry sector count : 0
Damaged sector count : 0
Track 06
Filename : /Users/anch/Music/FLAC/Rudiger Carl, Hans Reichel - 1995 - Buben... Plus [FLAC]/06 - Tinka.flac
/Users/anch/Music/FLAC/Rudiger Carl, Hans Reichel - 1995 - Buben... Plus [MP3 320]/06 - Tinka.mp3
/Users/anch/Music/FLAC/Rudiger Carl, Hans Reichel - 1995 - Buben... Plus [MP3 V0]/06 - Tinka.mp3
Pre-gap length : 00:01:74
Track gain : 1.42 dB
Peak : 0.831665
CRC32 hash (test run) : 1A3A17CF
CRC32 hash : 1A3A17CF
CRC32 hash (skip zero) : 041D575D
AccurateRip v1 signature : 9430AB85
AccurateRip v2 signature : 587AE183
->Track not present in AccurateRip database.
Statistics
Read error : 0
Jitter error (maybe fixed) : 0
Retry sector count : 0
Damaged sector count : 0
Track 07
Filename : /Users/anch/Music/FLAC/Rudiger Carl, Hans Reichel - 1995 - Buben... Plus [FLAC]/07 - Tentacles, To Boot.flac
/Users/anch/Music/FLAC/Rudiger Carl, Hans Reichel - 1995 - Buben... Plus [MP3 320]/07 - Tentacles, To Boot.mp3
/Users/anch/Music/FLAC/Rudiger Carl, Hans Reichel - 1995 - Buben... Plus [MP3 V0]/07 - Tentacles, To Boot.mp3
Pre-gap length : 00:01:74
Track gain : -1.69 dB
Peak : 0.825073
CRC32 hash (test run) : CD4447C0
CRC32 hash : CD4447C0
CRC32 hash (skip zero) : 51FF917E
AccurateRip v1 signature : 2AC9A995
AccurateRip v2 signature : DACA6179
->Track not present in AccurateRip database.
Statistics
Read error : 0
Jitter error (maybe fixed) : 0
Retry sector count : 0
Damaged sector count : 0
Track 08
Filename : /Users/anch/Music/FLAC/Rudiger Carl, Hans Reichel - 1995 - Buben... Plus [FLAC]/08 - Fettwalzer.flac
/Users/anch/Music/FLAC/Rudiger Carl, Hans Reichel - 1995 - Buben... Plus [MP3 320]/08 - Fettwalzer.mp3
/Users/anch/Music/FLAC/Rudiger Carl, Hans Reichel - 1995 - Buben... Plus [MP3 V0]/08 - Fettwalzer.mp3
Pre-gap length : 00:01:74
Track gain : -0.94 dB
Peak : 0.847656
CRC32 hash (test run) : 6DCAA6A7
CRC32 hash : 6DCAA6A7
CRC32 hash (skip zero) : BFC0FE1C
AccurateRip v1 signature : D02E623B
AccurateRip v2 signature : 0820A4E8
->Track not present in AccurateRip database.
Statistics
Read error : 0
Jitter error (maybe fixed) : 0
Retry sector count : 0
Damaged sector count : 0
Track 09
Filename : /Users/anch/Music/FLAC/Rudiger Carl, Hans Reichel - 1995 - Buben... Plus [FLAC]/09 - Nict Die Falsche Dame Drucken.flac
/Users/anch/Music/FLAC/Rudiger Carl, Hans Reichel - 1995 - Buben... Plus [MP3 320]/09 - Nict Die Falsche Dame Drucken.mp3
/Users/anch/Music/FLAC/Rudiger Carl, Hans Reichel - 1995 - Buben... Plus [MP3 V0]/09 - Nict Die Falsche Dame Drucken.mp3
Pre-gap length : 00:01:74
Track gain : 2.28 dB
Peak : 0.798615
CRC32 hash (test run) : 60B8B02A
CRC32 hash : 60B8B02A
CRC32 hash (skip zero) : 83B22232
AccurateRip v1 signature : 718F7712
AccurateRip v2 signature : 01965C23
->Track not present in AccurateRip database.
Statistics
Read error : 0
Jitter error (maybe fixed) : 0
Retry sector count : 0
Damaged sector count : 0
Track 10
Filename : /Users/anch/Music/FLAC/Rudiger Carl, Hans Reichel - 1995 - Buben... Plus [FLAC]/10 - The Truth About A-Minor.flac
/Users/anch/Music/FLAC/Rudiger Carl, Hans Reichel - 1995 - Buben... Plus [MP3 320]/10 - The Truth About A-Minor.mp3
/Users/anch/Music/FLAC/Rudiger Carl, Hans Reichel - 1995 - Buben... Plus [MP3 V0]/10 - The Truth About A-Minor.mp3
Pre-gap length : 00:01:74
Track gain : 2.16 dB
Peak : 0.529694
CRC32 hash (test run) : 772A6D0B
CRC32 hash : 772A6D0B
CRC32 hash (skip zero) : 51E06778
AccurateRip v1 signature : 29E8E16C
AccurateRip v2 signature : AB19142C
->Track not present in AccurateRip database.
Statistics
Read error : 0
Jitter error (maybe fixed) : 0
Retry sector count : 0
Damaged sector count : 0
Track 11
Filename : /Users/anch/Music/FLAC/Rudiger Carl, Hans Reichel - 1995 - Buben... Plus [FLAC]/11 - Berlin.flac
/Users/anch/Music/FLAC/Rudiger Carl, Hans Reichel - 1995 - Buben... Plus [MP3 320]/11 - Berlin.mp3
/Users/anch/Music/FLAC/Rudiger Carl, Hans Reichel - 1995 - Buben... Plus [MP3 V0]/11 - Berlin.mp3
Pre-gap length : 00:01:74
Track gain : 1.20 dB
Peak : 0.636749
CRC32 hash (test run) : D535C567
CRC32 hash : D535C567
CRC32 hash (skip zero) : 41B2FD84
AccurateRip v1 signature : B9EEA5C7
AccurateRip v2 signature : FA7B991E
->Track not present in AccurateRip database.
Statistics
Read error : 0
Jitter error (maybe fixed) : 0
Retry sector count : 0
Damaged sector count : 0
Track 12
Filename : /Users/anch/Music/FLAC/Rudiger Carl, Hans Reichel - 1995 - Buben... Plus [FLAC]/12 - Buben.flac
/Users/anch/Music/FLAC/Rudiger Carl, Hans Reichel - 1995 - Buben... Plus [MP3 320]/12 - Buben.mp3
/Users/anch/Music/FLAC/Rudiger Carl, Hans Reichel - 1995 - Buben... Plus [MP3 V0]/12 - Buben.mp3
Pre-gap length : 00:01:74
Track gain : 1.73 dB
Peak : 0.703369
CRC32 hash (test run) : B4094943
CRC32 hash : B4094943
CRC32 hash (skip zero) : 107091E7
AccurateRip v1 signature : 7D9B88AB
AccurateRip v2 signature : 11DA2A16
->Track not present in AccurateRip database.
Statistics
Read error : 0
Jitter error (maybe fixed) : 0
Retry sector count : 0
Damaged sector count : 0
Track 13
Filename : /Users/anch/Music/FLAC/Rudiger Carl, Hans Reichel - 1995 - Buben... Plus [FLAC]/13 - Rollo Und Bedutung.flac
/Users/anch/Music/FLAC/Rudiger Carl, Hans Reichel - 1995 - Buben... Plus [MP3 320]/13 - Rollo Und Bedutung.mp3
/Users/anch/Music/FLAC/Rudiger Carl, Hans Reichel - 1995 - Buben... Plus [MP3 V0]/13 - Rollo Und Bedutung.mp3
Pre-gap length : 00:01:74
Track gain : 3.15 dB
Peak : 0.522858
CRC32 hash (test run) : 36012CD7
CRC32 hash : 36012CD7
CRC32 hash (skip zero) : E39F818A
AccurateRip v1 signature : 47751822
AccurateRip v2 signature : 2CAA4DF4
->Track not present in AccurateRip database.
Statistics
Read error : 0
Jitter error (maybe fixed) : 0
Retry sector count : 0
Damaged sector count : 0
Track 14
Filename : /Users/anch/Music/FLAC/Rudiger Carl, Hans Reichel - 1995 - Buben... Plus [FLAC]/14 - Kipper Kids.flac
/Users/anch/Music/FLAC/Rudiger Carl, Hans Reichel - 1995 - Buben... Plus [MP3 320]/14 - Kipper Kids.mp3
/Users/anch/Music/FLAC/Rudiger Carl, Hans Reichel - 1995 - Buben... Plus [MP3 V0]/14 - Kipper Kids.mp3
Pre-gap length : 00:01:74
Track gain : 5.29 dB
Peak : 0.516968
CRC32 hash (test run) : 0585D464
CRC32 hash : 0585D464
CRC32 hash (skip zero) : 81C5AF51
AccurateRip v1 signature : 97DCF73B
AccurateRip v2 signature : 36B427BD
->Track not present in AccurateRip database.
Statistics
Read error : 0
Jitter error (maybe fixed) : 0
Retry sector count : 0
Damaged sector count : 0
Track 15
Filename : /Users/anch/Music/FLAC/Rudiger Carl, Hans Reichel - 1995 - Buben... Plus [FLAC]/15 - Der Erica.flac
/Users/anch/Music/FLAC/Rudiger Carl, Hans Reichel - 1995 - Buben... Plus [MP3 320]/15 - Der Erica.mp3
/Users/anch/Music/FLAC/Rudiger Carl, Hans Reichel - 1995 - Buben... Plus [MP3 V0]/15 - Der Erica.mp3
Pre-gap length : 00:01:74
Track gain : 2.00 dB
Peak : 0.567932
CRC32 hash (test run) : A6477A47
CRC32 hash : A6477A47
CRC32 hash (skip zero) : A907BB08
AccurateRip v1 signature : 4D5BE1D8
AccurateRip v2 signature : 338AB3C9
->Track not present in AccurateRip database.
Statistics
Read error : 0
Jitter error (maybe fixed) : 0
Retry sector count : 0
Damaged sector count : 0
Track 16
Filename : /Users/anch/Music/FLAC/Rudiger Carl, Hans Reichel - 1995 - Buben... Plus [FLAC]/16 - Quiet Land.flac
/Users/anch/Music/FLAC/Rudiger Carl, Hans Reichel - 1995 - Buben... Plus [MP3 320]/16 - Quiet Land.mp3
/Users/anch/Music/FLAC/Rudiger Carl, Hans Reichel - 1995 - Buben... Plus [MP3 V0]/16 - Quiet Land.mp3
Pre-gap length : 00:01:74
Track gain : 3.40 dB
Peak : 0.672943
CRC32 hash (test run) : 880F9589
CRC32 hash : 880F9589
CRC32 hash (skip zero) : 7BF8CDD5
AccurateRip v1 signature : 1FAFE23B
AccurateRip v2 signature : F206DA3E
->Track not present in AccurateRip database.
Statistics
Read error : 0
Jitter error (maybe fixed) : 0
Retry sector count : 0
Damaged sector count : 0
Track 17
Filename : /Users/anch/Music/FLAC/Rudiger Carl, Hans Reichel - 1995 - Buben... Plus [FLAC]/17 - Kickern Mit Manne.flac
/Users/anch/Music/FLAC/Rudiger Carl, Hans Reichel - 1995 - Buben... Plus [MP3 320]/17 - Kickern Mit Manne.mp3
/Users/anch/Music/FLAC/Rudiger Carl, Hans Reichel - 1995 - Buben... Plus [MP3 V0]/17 - Kickern Mit Manne.mp3
Pre-gap length : 00:01:74
Track gain : 1.86 dB
Peak : 0.707062
CRC32 hash (test run) : A053E196
CRC32 hash : A053E196
CRC32 hash (skip zero) : 95156A53
AccurateRip v1 signature : 9DF943A8
AccurateRip v2 signature : 13EC001E
->Track not present in AccurateRip database.
Statistics
Read error : 0
Jitter error (maybe fixed) : 0
Retry sector count : 0
Damaged sector count : 0
Track 18
Filename : /Users/anch/Music/FLAC/Rudiger Carl, Hans Reichel - 1995 - Buben... Plus [FLAC]/18 - Damen.flac
/Users/anch/Music/FLAC/Rudiger Carl, Hans Reichel - 1995 - Buben... Plus [MP3 320]/18 - Damen.mp3
/Users/anch/Music/FLAC/Rudiger Carl, Hans Reichel - 1995 - Buben... Plus [MP3 V0]/18 - Damen.mp3
Pre-gap length : 00:01:74
Track gain : 0.55 dB
Peak : 0.651062
CRC32 hash (test run) : D7EC9312
CRC32 hash : D7EC9312
CRC32 hash (skip zero) : 82BE408D
AccurateRip v1 signature : C42E2B60
AccurateRip v2 signature : C48FB441
->Track not present in AccurateRip database.
Statistics
Read error : 0
Jitter error (maybe fixed) : 0
Retry sector count : 0
Damaged sector count : 0
Track 19
Filename : /Users/anch/Music/FLAC/Rudiger Carl, Hans Reichel - 1995 - Buben... Plus [FLAC]/19 - Wuppertal, Wuppertal.flac
/Users/anch/Music/FLAC/Rudiger Carl, Hans Reichel - 1995 - Buben... Plus [MP3 320]/19 - Wuppertal, Wuppertal.mp3
/Users/anch/Music/FLAC/Rudiger Carl, Hans Reichel - 1995 - Buben... Plus [MP3 V0]/19 - Wuppertal, Wuppertal.mp3
Pre-gap length : 00:01:74
Track gain : 4.05 dB
Peak : 0.728973
CRC32 hash (test run) : 8E74B83D
CRC32 hash : 8E74B83D
CRC32 hash (skip zero) : 64CE0EC8
AccurateRip v1 signature : 480DB100
AccurateRip v2 signature : FA9E3886
->Track not present in AccurateRip database.
Statistics
Read error : 0
Jitter error (maybe fixed) : 0
Retry sector count : 0
Damaged sector count : 0
Track 20
Filename : /Users/anch/Music/FLAC/Rudiger Carl, Hans Reichel - 1995 - Buben... Plus [FLAC]/20 - The Elk.flac
/Users/anch/Music/FLAC/Rudiger Carl, Hans Reichel - 1995 - Buben... Plus [MP3 320]/20 - The Elk.mp3
/Users/anch/Music/FLAC/Rudiger Carl, Hans Reichel - 1995 - Buben... Plus [MP3 V0]/20 - The Elk.mp3
Pre-gap length : 00:01:74
Track gain : 2.91 dB
Peak : 0.608856
CRC32 hash (test run) : 37B6BDCB
CRC32 hash : 37B6BDCB
CRC32 hash (skip zero) : A6EDE786
AccurateRip v1 signature : C230EFF3
AccurateRip v2 signature : B111B87A
->Track not present in AccurateRip database.
Statistics
Read error : 0
Jitter error (maybe fixed) : 0
Retry sector count : 0
Damaged sector count : 0
Track 21
Filename : /Users/anch/Music/FLAC/Rudiger Carl, Hans Reichel - 1995 - Buben... Plus [FLAC]/21 - Gernebreit.flac
/Users/anch/Music/FLAC/Rudiger Carl, Hans Reichel - 1995 - Buben... Plus [MP3 320]/21 - Gernebreit.mp3
/Users/anch/Music/FLAC/Rudiger Carl, Hans Reichel - 1995 - Buben... Plus [MP3 V0]/21 - Gernebreit.mp3
Pre-gap length : 00:01:74
Track gain : 2.94 dB
Peak : 0.706696
CRC32 hash (test run) : B62F1D08
CRC32 hash : B62F1D08
CRC32 hash (skip zero) : 5D1D0411
AccurateRip v1 signature : E482BF5E
AccurateRip v2 signature : B171EC07
->Track not present in AccurateRip database.
Statistics
Read error : 0
Jitter error (maybe fixed) : 0
Retry sector count : 0
Damaged sector count : 0
Track 22
Filename : /Users/anch/Music/FLAC/Rudiger Carl, Hans Reichel - 1995 - Buben... Plus [FLAC]/22 - Pick-Pick Elisabeth.flac
/Users/anch/Music/FLAC/Rudiger Carl, Hans Reichel - 1995 - Buben... Plus [MP3 320]/22 - Pick-Pick Elisabeth.mp3
/Users/anch/Music/FLAC/Rudiger Carl, Hans Reichel - 1995 - Buben... Plus [MP3 V0]/22 - Pick-Pick Elisabeth.mp3
Pre-gap length : 00:01:74
Track gain : 2.60 dB
Peak : 0.995850
CRC32 hash (test run) : 617F4BCC
CRC32 hash : 617F4BCC
CRC32 hash (skip zero) : A3076BEC
AccurateRip v1 signature : 901FE16B
AccurateRip v2 signature : 4811649E
->Track not present in AccurateRip database.
Statistics
Read error : 0
Jitter error (maybe fixed) : 0
Retry sector count : 0
Damaged sector count : 0
Track 23
Filename : /Users/anch/Music/FLAC/Rudiger Carl, Hans Reichel - 1995 - Buben... Plus [FLAC]/23 - The Last Beef Contract.flac
/Users/anch/Music/FLAC/Rudiger Carl, Hans Reichel - 1995 - Buben... Plus [MP3 320]/23 - The Last Beef Contract.mp3
/Users/anch/Music/FLAC/Rudiger Carl, Hans Reichel - 1995 - Buben... Plus [MP3 V0]/23 - The Last Beef Contract.mp3
Pre-gap length : 00:01:74
Track gain : 2.38 dB
Peak : 0.536804
CRC32 hash (test run) : 5F345391
CRC32 hash : 5F345391
CRC32 hash (skip zero) : FDE66AB9
AccurateRip v1 signature : C931CF4C
AccurateRip v2 signature : 1B918952
->Track not present in AccurateRip database.
Statistics
Read error : 0
Jitter error (maybe fixed) : 0
Retry sector count : 0
Damaged sector count : 0
Track 24
Filename : /Users/anch/Music/FLAC/Rudiger Carl, Hans Reichel - 1995 - Buben... Plus [FLAC]/24 - Vande Vannet.flac
/Users/anch/Music/FLAC/Rudiger Carl, Hans Reichel - 1995 - Buben... Plus [MP3 320]/24 - Vande Vannet.mp3
/Users/anch/Music/FLAC/Rudiger Carl, Hans Reichel - 1995 - Buben... Plus [MP3 V0]/24 - Vande Vannet.mp3
Pre-gap length : 00:01:74
Track gain : 0.30 dB
Peak : 0.803711
CRC32 hash (test run) : 3B1D0813
CRC32 hash : 3B1D0813
CRC32 hash (skip zero) : 2DAB5844
AccurateRip v1 signature : 4C5465D5
AccurateRip v2 signature : 72321D7A
->Track not present in AccurateRip database.
Statistics
Read error : 0
Jitter error (maybe fixed) : 0
Retry sector count : 0
Damaged sector count : 0
No errors occurred
End of status report
 
Содержание индексной карты (.CUE)
TITLE "Buben... Plus"
PERFORMER "Rüdiger Carl, Hans Reichel"
REM GENRE "Free Jazz / Experimental"
REM DATE "1995"
REM DISCID 3C114518
REM REPLAYGAIN_ALBUM_GAIN 1.26 dB
REM REPLAYGAIN_ALBUM_PEAK 0.995850
FILE "01 - First Aid.flac" WAVE
TRACK 01 AUDIO
TITLE "First Aid"
PERFORMER "Rüdiger Carl, Hans Reichel"
REM REPLAYGAIN_TRACK_GAIN 1.15 dB
REM REPLAYGAIN_TRACK_PEAK 0.657104
INDEX 01 00:00:00
TRACK 02 AUDIO
TITLE "Moon Over Wichlinghausen"
PERFORMER "Rüdiger Carl, Hans Reichel"
REM REPLAYGAIN_TRACK_GAIN 1.10 dB
REM REPLAYGAIN_TRACK_PEAK 0.609436
INDEX 00 04:05:23
FILE "02 - Moon Over Wichlinghausen.flac" WAVE
INDEX 01 00:00:00
TRACK 03 AUDIO
TITLE "Bubenziehen"
PERFORMER "Rüdiger Carl, Hans Reichel"
REM REPLAYGAIN_TRACK_GAIN 0.28 dB
REM REPLAYGAIN_TRACK_PEAK 0.672394
INDEX 00 02:40:01
FILE "03 - Bubenziehen.flac" WAVE
INDEX 01 00:00:00
TRACK 04 AUDIO
TITLE "Beneath The Future"
PERFORMER "Rüdiger Carl, Hans Reichel"
REM REPLAYGAIN_TRACK_GAIN 1.09 dB
REM REPLAYGAIN_TRACK_PEAK 0.950043
INDEX 00 02:09:01
FILE "04 - Beneath The Future.flac" WAVE
INDEX 01 00:00:00
TRACK 05 AUDIO
TITLE "Kant"
PERFORMER "Rüdiger Carl, Hans Reichel"
REM REPLAYGAIN_TRACK_GAIN 0.37 dB
REM REPLAYGAIN_TRACK_PEAK 0.752686
INDEX 00 04:04:64
FILE "05 - Kant.flac" WAVE
INDEX 01 00:00:00
TRACK 06 AUDIO
TITLE "Tinka"
PERFORMER "Rüdiger Carl, Hans Reichel"
REM REPLAYGAIN_TRACK_GAIN 1.42 dB
REM REPLAYGAIN_TRACK_PEAK 0.831665
INDEX 00 02:26:01
FILE "06 - Tinka.flac" WAVE
INDEX 01 00:00:00
TRACK 07 AUDIO
TITLE "Tentacles, To Boot"
PERFORMER "Rüdiger Carl, Hans Reichel"
REM REPLAYGAIN_TRACK_GAIN -1.69 dB
REM REPLAYGAIN_TRACK_PEAK 0.825073
INDEX 00 02:15:51
FILE "07 - Tentacles, To Boot.flac" WAVE
INDEX 01 00:00:00
TRACK 08 AUDIO
TITLE "Fettwalzer"
PERFORMER "Rüdiger Carl, Hans Reichel"
REM REPLAYGAIN_TRACK_GAIN -0.94 dB
REM REPLAYGAIN_TRACK_PEAK 0.847656
INDEX 00 02:28:28
FILE "08 - Fettwalzer.flac" WAVE
INDEX 01 00:00:00
TRACK 09 AUDIO
TITLE "Nict Die Falsche Dame Drücken"
PERFORMER "Rüdiger Carl, Hans Reichel"
REM REPLAYGAIN_TRACK_GAIN 2.28 dB
REM REPLAYGAIN_TRACK_PEAK 0.798615
INDEX 00 03:01:44
FILE "09 - Nict Die Falsche Dame Drucken.flac" WAVE
INDEX 01 00:00:00
TRACK 10 AUDIO
TITLE "The Truth About A-Minor"
PERFORMER "Rüdiger Carl, Hans Reichel"
REM REPLAYGAIN_TRACK_GAIN 2.16 dB
REM REPLAYGAIN_TRACK_PEAK 0.529694
INDEX 00 02:11:28
FILE "10 - The Truth About A-Minor.flac" WAVE
INDEX 01 00:00:00
TRACK 11 AUDIO
TITLE "Berlin"
PERFORMER "Rüdiger Carl, Hans Reichel"
REM REPLAYGAIN_TRACK_GAIN 1.20 dB
REM REPLAYGAIN_TRACK_PEAK 0.636749
INDEX 00 03:01:54
FILE "11 - Berlin.flac" WAVE
INDEX 01 00:00:00
TRACK 12 AUDIO
TITLE "Buben"
PERFORMER "Rüdiger Carl, Hans Reichel"
REM REPLAYGAIN_TRACK_GAIN 1.73 dB
REM REPLAYGAIN_TRACK_PEAK 0.703369
INDEX 00 01:34:38
FILE "12 - Buben.flac" WAVE
INDEX 01 00:00:00
TRACK 13 AUDIO
TITLE "Rollo Und Bedutung"
PERFORMER "Rüdiger Carl, Hans Reichel"
REM REPLAYGAIN_TRACK_GAIN 3.15 dB
REM REPLAYGAIN_TRACK_PEAK 0.522858
INDEX 00 05:03:39
FILE "13 - Rollo Und Bedutung.flac" WAVE
INDEX 01 00:00:00
TRACK 14 AUDIO
TITLE "Kipper Kids"
PERFORMER "Rüdiger Carl, Hans Reichel"
REM REPLAYGAIN_TRACK_GAIN 5.29 dB
REM REPLAYGAIN_TRACK_PEAK 0.516968
INDEX 00 02:02:51
FILE "14 - Kipper Kids.flac" WAVE
INDEX 01 00:00:00
TRACK 15 AUDIO
TITLE "Der Erica"
PERFORMER "Rüdiger Carl, Hans Reichel"
REM REPLAYGAIN_TRACK_GAIN 2.00 dB
REM REPLAYGAIN_TRACK_PEAK 0.567932
INDEX 00 02:37:01
FILE "15 - Der Erica.flac" WAVE
INDEX 01 00:00:00
TRACK 16 AUDIO
TITLE "Quiet Land"
PERFORMER "Rüdiger Carl, Hans Reichel"
REM REPLAYGAIN_TRACK_GAIN 3.40 dB
REM REPLAYGAIN_TRACK_PEAK 0.672943
INDEX 00 04:00:31
FILE "16 - Quiet Land.flac" WAVE
INDEX 01 00:00:00
TRACK 17 AUDIO
TITLE "Kickern Mit Manne"
PERFORMER "Rüdiger Carl, Hans Reichel"
REM REPLAYGAIN_TRACK_GAIN 1.86 dB
REM REPLAYGAIN_TRACK_PEAK 0.707062
INDEX 00 03:20:13
FILE "17 - Kickern Mit Manne.flac" WAVE
INDEX 01 00:00:00
TRACK 18 AUDIO
TITLE "Damen"
PERFORMER "Rüdiger Carl, Hans Reichel"
REM REPLAYGAIN_TRACK_GAIN 0.55 dB
REM REPLAYGAIN_TRACK_PEAK 0.651062
INDEX 00 02:57:26
FILE "18 - Damen.flac" WAVE
INDEX 01 00:00:00
TRACK 19 AUDIO
TITLE "Wuppertal, Wuppertal"
PERFORMER "Rüdiger Carl, Hans Reichel"
REM REPLAYGAIN_TRACK_GAIN 4.05 dB
REM REPLAYGAIN_TRACK_PEAK 0.728973
INDEX 00 02:56:59
FILE "19 - Wuppertal, Wuppertal.flac" WAVE
INDEX 01 00:00:00
TRACK 20 AUDIO
TITLE "The Elk"
PERFORMER "Rüdiger Carl, Hans Reichel"
REM REPLAYGAIN_TRACK_GAIN 2.91 dB
REM REPLAYGAIN_TRACK_PEAK 0.608856
INDEX 00 01:52:08
FILE "20 - The Elk.flac" WAVE
INDEX 01 00:00:00
TRACK 21 AUDIO
TITLE "Gernebreit"
PERFORMER "Rüdiger Carl, Hans Reichel"
REM REPLAYGAIN_TRACK_GAIN 2.94 dB
REM REPLAYGAIN_TRACK_PEAK 0.706696
INDEX 00 02:22:04
FILE "21 - Gernebreit.flac" WAVE
INDEX 01 00:00:00
TRACK 22 AUDIO
TITLE "Pick-Pick Elisabeth"
PERFORMER "Rüdiger Carl, Hans Reichel"
REM REPLAYGAIN_TRACK_GAIN 2.60 dB
REM REPLAYGAIN_TRACK_PEAK 0.995850
INDEX 00 02:10:28
FILE "22 - Pick-Pick Elisabeth.flac" WAVE
INDEX 01 00:00:00
TRACK 23 AUDIO
TITLE "The Last Beef Contract"
PERFORMER "Rüdiger Carl, Hans Reichel"
REM REPLAYGAIN_TRACK_GAIN 2.38 dB
REM REPLAYGAIN_TRACK_PEAK 0.536804
INDEX 00 03:15:51
FILE "23 - The Last Beef Contract.flac" WAVE
INDEX 01 00:00:00
TRACK 24 AUDIO
TITLE "Vande Vannet"
PERFORMER "Rüdiger Carl, Hans Reichel"
REM REPLAYGAIN_TRACK_GAIN 0.30 dB
REM REPLAYGAIN_TRACK_PEAK 0.803711
INDEX 00 04:22:34
FILE "24 - Vande Vannet.flac" WAVE
INDEX 01 00:00:00
 
Лог проверки качества
fooCDtect - foobar2000 + auCDtect, baralgin.
auCDtect: CD records authenticity detector, version 0.8.2
Copyright (c) 2004 Oleg Berngardt. All rights reserved.
Copyright (c) 2004 Alexander Djourik. All rights reserved.
mode: 0
===========================================
Track: 01. First Aid
Quality: CDDA 99%
===========================================
Track: 02. Moon Over Wichlinghausen
Quality: CDDA 100%
===========================================
Track: 03. Bubenziehen
Quality: CDDA 100%
===========================================
Track: 04. Beneath The Future
Quality: CDDA 100%
===========================================
Track: 05. Kant
Quality: CDDA 100%
===========================================
Track: 06. Tinka
Quality: CDDA 100%
===========================================
Track: 07. Tentacles, To Boot
Quality: CDDA 100%
===========================================
Track: 08. Fettwalzer
Quality: CDDA 100%
===========================================
Track: 09. Nict Die Falsche Dame Drücken
Quality: CDDA 100%
===========================================
Track: 10. The Truth About A-Minor
Quality: CDDA 100%
===========================================
Track: 11. Berlin
Quality: CDDA 100%
===========================================
Track: 12. Buben
Quality: CDDA 100%
===========================================
Track: 13. Rollo Und Bedutung
Quality: CDDA 100%
===========================================
Track: 14. Kipper Kids
Quality: CDDA 100%
===========================================
Track: 15. Der Erica
Quality: CDDA 100%
===========================================
Track: 16. Quiet Land
Quality: CDDA 100%
===========================================
Track: 17. Kickern Mit Manne
Quality: CDDA 100%
===========================================
Track: 18. Damen
Quality: CDDA 100%
===========================================
Track: 19. Wuppertal, Wuppertal
Quality: CDDA 99%
===========================================
Track: 20. The Elk
Quality: CDDA 100%
===========================================
Track: 21. Gernebreit
Quality: CDDA 99%
===========================================
Track: 22. Pick-Pick Elisabeth
Quality: CDDA 100%
===========================================
Track: 23. The Last Beef Contract
Quality: CDDA 100%
===========================================
Track: 24. Vande Vannet
Quality: CDDA 100%
===========================================
16:32
262
Нет комментариев. Ваш будет первым!