Вы используете незарегистрированную версию компонента "Вкладки"!

Поиск

(Avant-Garde Jazz / Free Improvisation) [CD] Angelica Sanchez / Wadada Leo Smith - Twine Forest - 2013, FLAC (tracks+.cue), lossless

(Avant-Garde Jazz / Free Improvisation) [CD] Angelica Sanchez / Wadada Leo Smith - Twine Forest - 2013, FLAC (tracks+.cue), lossless
Треклист:
Angelica Sanchez / Wadada Leo Smith - Twine Forest
Жанр: Avant-Garde Jazz / Free Improvisation
Носитель: CD
Страна-производитель диска (релиза): Portugal
Год издания: 2013
Издатель (лейбл): Clean Feed
Номер по каталогу: CF287CD
Аудиокодек: FLAC (*.flac)
Тип рипа: tracks+.cue
Битрейт аудио: lossless
Продолжительность: 00:58:31
Источник (релизер): AvaxHome / спасибо tiburon / rip by jlgt
Наличие сканов в содержимом раздачи: да
Треклист:
1. Cones of Chrome (04:33)
2. Veinular Rub (08:56)
3. Retinal Sand (06:46)
4. Echolocation (07:27)
5. Light Black Birds (05:45)
6. Twine Forest (08:15)
7. In The Falls of... (07:34)
8. Ultimate Causes (09:28)
All compositions by Angelica Sanchez
Доп. информация:
Musicians:
Angelica Sanchez - piano
Wadada Leo Smith - trumpet
Recorded on April 7, 2013 at Systems Two Studios in Brooklyn, NY
Angelica Sanchez / Wadada Leo Smith - Twine Forest cleanfeed-records.com
Angelica Sanchez / Wadada Leo Smith - Twine Forest freejazzblog.org
Angelica Sanchez Official Site
Wadada Leo Smith Official Site
Wadada Leo Smith from Wikipedia, the free encyclopedia
 
... back ...
 
... review ...
A duo is the most intimate of encounters in jazz – such a tête-à-tête demands rare communication, forcing each player to open up, unable to rely on group interplay. The duo of pianist Angelica Sanchez & trumpet great Wadada Leo Smith is a special relationship, new yet not new. Sanchez has been part of two Smith-led projects, the Golden Quartet and Organic, and their duo relationship arose naturally out of their past encounters. Following several all-improvised concerts together, Sanchez and Smith have created their first album together with Twine Forest, the ravishing result of improvisational communion in the studio. Smith’s tone is like silver – glinting off Sanchez’s chords and lines, glowing in resonance with the strings of the piano. TheLos Angeles Times has said that Smith – who was nominated for a Pulitzer Prize last year – “not only recalls Miles at Davis at his most uncompromising but also builds upon his legacy to the point where such comparisons lose meaning.” And The New York Timeshas said: “In her piano playing and compositions, Angelica Sanchez seeks out the lyrical heartbeat within any avant-garde storm,” while All About Jazz has called her “a perceptive composer and cunning improviser.”
About her partnership with Smith, Sanchez says: “You can really get to know another musician playing in a duo – and it has been an amazing experience with Wadada. I get lost in his sound. He’s acutely sensitive to the piano, playing to the instrument –into it literally sometimes, so that when I leave the sustain pedal down, we get these wonderful vibrations; but also in a larger, cosmic sense with the way he plays to the idea of the piano and what it can do. We get an expansive sound together. He’s also such a master improviser, having developed his own language over the years – this unique voice. When I play with Wadada, he makes me listen differently. He gets deep into the music, and time slows down, so that an hour can feel like five minutes.”
Pianist-composer Angelica Sanchez moved from her native Arizona to New York City in 1994, performing since with the likes of not only Wadada Leo Smith but Paul Motian, Tim Berne, Ralph Alessi, Mario Pavone, Susie Ibarra and Brandon Ross, among many others. Sanchez has released two albums as the leader of an all-star quintet featuring saxophonist Tony Malaby, guitarist Marc Ducret, bassist Drew Gress and drummer Tom Rainey: 2010’s Life Between and 2012’s Wires & Moss (both on Clean Feed). JazzTimes has said: “Sanchez’s provocative writing – full of evocative harmonies and open-ended forms – showcases her flair for counterpoint and marks her as a formidable talent.” In 2011, Sanchez released her first solo album, A Little House (Clean Feed). She debuted on record as a leader with Mirror Me(OmniTone, 2003), featuring her at the head of a quartet with Malaby, Rainey and bassist Michael Formanek. Sanchez co-leads an ongoing trio with Malaby and Rainey; having already released the great two-volume, all-improvised Alive in Brooklyn (featuring her on electric Wurlitzer), the trio has a new album in the works with Sanchez on acoustic piano. Among other collaborations, she performs and records with drummer-composer Harris Eisenstadt and saxophonist Ellery Eskelin as the September Trio, having released the Clean Feed albums September Trio andThe Destructive Element. The Philadelphia City Paperhas said that Sanchez “carries an unforced authority; her virtuosity (not too strong a word) is less solid than fluid, a thing of movement and ease.”
Trumpeter-composer Wadada Leo Smith, born and raised in Leland, Mississippi, started playing trumpet in R&B bands, encouraged by his stepfather, blues guitarist Alex Wallace. By the mid 1960s, he had gravitated to Chicago’s burgeoning avant-garde jazz community where he was part of the first generation of musicians to come out of Chicago’s AACM (Association for the Advancement of Creative Music). Smith formed the Creative Construction Company together with saxophonist Anthony Braxton and violinist Leroy Jenkins. Since the early ’70s, Smith has performed and recorded mainly with his own groups. He currently leads four principal ensembles: Mbira, a trio with pipa player Min Xiao-Fen and drummer Pheeroan akLaff; the Golden Quartet, his highly celebrated group that now includes Anthony Davis, John Lindberg and Pheeroan akLaff; Organic, a larger ensemble consisting primarily of electric string instruments; and the Silver Orchestra, which explores Smith’s music for large ensemble. From solo trumpet to orchestral ensembles, he has released nearly 50 albums via such labels ECM, Moers, Black Saint, Tzadik, Pi Recordings, TUM, Leo, Intakt and Cuneiform. The latter label released his spiritually charged four-CD set Ten Freedom Summersin 2012. Pop Matters called it “an emotional and intellectual luxury, a chance to commune with greatness… the work of a lifetime by one of jazz’s true visionaries,” while theOxford American called it “stirringly beautiful, an outstanding aesthetic achievement.” In 2012, the TUM label releasedAncestors, Smith’s duo album with South African drummer Louis Moholo-Moholo; in 2013, TUM released Occupy the World, Smith’s double-disc project leading the Finnish TUMO orchestra. Smith has also collaborated closely on record with the likes of Braxton (Organic Resonance), drummer Ed Blackwell (The Blue Mountain’s Sun Drummer) and guitarist Henry Kaiser (the Yo Miles! series of albums exploring the legacy of electric Miles Davis). An esteemed educator and music theorist, Smith has been on faculty since 1993 at the California Institute of the Arts, where he is director of the African-American Improvisational Music Program.
~ cleanfeed-records.com
 
Лог создания рипа
Exact Audio Copy V1.0 beta 3 from 29. August 2011
EAC extraction logfile from 23. August 2015, 10:25
Angelica Sanchez & Wadada Leo Smith / Twine Forest
Used drive : PLEXTOR DVDR PX-891SA Adapter: 4 ID: 0
Read mode : Secure
Utilize accurate stream : Yes
Defeat audio cache : Yes
Make use of C2 pointers : No
Read offset correction : 6
Overread into Lead-In and Lead-Out : No
Fill up missing offset samples with silence : Yes
Delete leading and trailing silent blocks : No
Null samples used in CRC calculations : Yes
Used interface : Native Win32 interface for Win NT & 2000
Gap handling : Appended to previous track
Used output format : User Defined Encoder
Selected bitrate : 128 kBit/s
Quality : High
Add ID3 tag : No
Command line compressor : C:\Program Files (x86)\Exact Audio Copy\FLAC\FLAC.EXE
Additional command line options : -8 -V -T "ARTIST=%artist%" -T "TITLE=%title%" -T "ALBUM=%albumtitle%" -T "DATE=%year%" -T "TRACKNUMBER=%tracknr%" -T "TOTALTRACKS=%numtracks%" -T "GENRE=%genre%" -T "ALBUMARTIST=%albumartist%" -T "ALBUM ARTIST=%albumartist%" -T "COMMENT=EAC Secure Mode, Test & Copy, AccurateRip, FLAC -8" %source%
TOC of the extracted CD
Track | Start | Length | Start sector | End sector
---------------------------------------------------------
1 | 0:00.00 | 4:32.60 | 0 | 20459
2 | 4:32.60 | 8:56.02 | 20460 | 60661
3 | 13:28.62 | 6:46.09 | 60662 | 91120
4 | 20:14.71 | 7:27.16 | 91121 | 124661
5 | 27:42.12 | 5:45.23 | 124662 | 150559
6 | 33:27.35 | 8:14.73 | 150560 | 187682
7 | 41:42.33 | 7:33.59 | 187683 | 221716
8 | 49:16.17 | 9:28.08 | 221717 | 264324
Track 1
Filename L:\flac rips\01 - Cones of Chrome.wav
Pre-gap length 0:00:02.00
Peak level 97.7 %
Extraction speed 5.9 X
Track quality 100.0 %
Test CRC 188CEB08
Copy CRC 188CEB08
Accurately ripped (confidence 1) [9AC6182D] (AR v2)
Copy OK
Track 2
Filename L:\flac rips\02 - Veinular Rub.wav
Pre-gap length 0:00:02.00
Peak level 97.5 %
Extraction speed 7.2 X
Track quality 100.0 %
Test CRC B48D57C6
Copy CRC B48D57C6
Accurately ripped (confidence 1) [FDB374C1] (AR v2)
Copy OK
Track 3
Filename L:\flac rips\03 - Retinal Sand.wav
Pre-gap length 0:00:01.00
Peak level 97.6 %
Extraction speed 7.9 X
Track quality 100.0 %
Test CRC A55B5849
Copy CRC A55B5849
Accurately ripped (confidence 1) [1F6312A6] (AR v2)
Copy OK
Track 4
Filename L:\flac rips\04 - Echolocation.wav
Pre-gap length 0:00:02.00
Peak level 97.7 %
Extraction speed 7.8 X
Track quality 99.9 %
Test CRC 4DC8B46D
Copy CRC 4DC8B46D
Accurately ripped (confidence 1) [19D70ED3] (AR v2)
Copy OK
Track 5
Filename L:\flac rips\05 - Light Black Birds.wav
Pre-gap length 0:00:01.74
Peak level 97.4 %
Extraction speed 9.2 X
Track quality 100.0 %
Test CRC A8C28144
Copy CRC A8C28144
Accurately ripped (confidence 1) [8E13E27E] (AR v2)
Copy OK
Track 6
Filename L:\flac rips\06 - Twine Forest.wav
Pre-gap length 0:00:02.00
Peak level 97.6 %
Extraction speed 9.0 X
Track quality 99.9 %
Test CRC 9057712E
Copy CRC 9057712E
Accurately ripped (confidence 1) [53570B45] (AR v2)
Copy OK
Track 7
Filename L:\flac rips\07 - In the Falls of....wav
Pre-gap length 0:00:01.74
Peak level 97.7 %
Extraction speed 10.7 X
Track quality 100.0 %
Test CRC 96B011F8
Copy CRC 96B011F8
Accurately ripped (confidence 1) [EC2CC5B9] (AR v2)
Copy OK
Track 8
Filename L:\flac rips\08 - Ultimate Causes.wav
Pre-gap length 0:00:02.00
Peak level 97.7 %
Extraction speed 11.5 X
Track quality 100.0 %
Test CRC 572DF636
Copy CRC 572DF636
Accurately ripped (confidence 1) [A8B098ED] (AR v2)
Copy OK
All tracks accurately ripped
No errors occurred
End of status report
==== Log checksum BBFA29C91F001A6D9B13985EE424B840218024453F51DDE332D248E826BCFB2C ====
 
Содержание индексной карты (.CUE)
REM GENRE Jazz
REM DATE 2013
REM DISCID 610DC408
REM COMMENT "ExactAudioCopy v1.0b3"
PERFORMER "Angelica Sanchez & Wadada Leo Smith"
TITLE "Twine Forest"
FILE "01 - Cones of Chrome.wav" WAVE
TRACK 01 AUDIO
TITLE "Cones of Chrome"
PERFORMER "Angelica Sanchez & Wadada Leo Smith"
INDEX 01 00:00:00
TRACK 02 AUDIO
TITLE "Veinular Rub"
PERFORMER "Angelica Sanchez & Wadada Leo Smith"
INDEX 00 04:30:60
FILE "02 - Veinular Rub.wav" WAVE
INDEX 01 00:00:00
TRACK 03 AUDIO
TITLE "Retinal Sand"
PERFORMER "Angelica Sanchez & Wadada Leo Smith"
INDEX 00 08:55:02
FILE "03 - Retinal Sand.wav" WAVE
INDEX 01 00:00:00
TRACK 04 AUDIO
TITLE "Echolocation"
PERFORMER "Angelica Sanchez & Wadada Leo Smith"
INDEX 00 06:44:09
FILE "04 - Echolocation.wav" WAVE
INDEX 01 00:00:00
TRACK 05 AUDIO
TITLE "Light Black Birds"
PERFORMER "Angelica Sanchez & Wadada Leo Smith"
INDEX 00 07:25:17
FILE "05 - Light Black Birds.wav" WAVE
INDEX 01 00:00:00
TRACK 06 AUDIO
TITLE "Twine Forest"
PERFORMER "Angelica Sanchez & Wadada Leo Smith"
INDEX 00 05:43:23
FILE "06 - Twine Forest.wav" WAVE
INDEX 01 00:00:00
TRACK 07 AUDIO
TITLE "In the Falls of..."
PERFORMER "Angelica Sanchez & Wadada Leo Smith"
INDEX 00 08:12:74
FILE "07 - In the Falls of....wav" WAVE
INDEX 01 00:00:00
TRACK 08 AUDIO
TITLE "Ultimate Causes"
PERFORMER "Angelica Sanchez & Wadada Leo Smith"
INDEX 00 07:31:59
FILE "08 - Ultimate Causes.wav" WAVE
INDEX 01 00:00:00
По всем вопросам пишите личное сообщение пользователю M0p94ok.
17:33
178
Нет комментариев. Ваш будет первым!