Вы используете незарегистрированную версию компонента "Вкладки"!

Поиск

(Avant-Garde Jazz, Free Improvisation) [CD] Susana Santos Silva, Torbjorn Zetterberg, Hampus Lindwall - If Nothing Else - 2015, FLAC (tracks+.cue), lossless

(Avant-Garde Jazz, Free Improvisation) [CD] Susana Santos Silva, Torbjorn Zetterberg, Hampus Lindwall - If Nothing Else - 2015, FLAC (tracks+.cue), lossless
Треклист:
' ' ' ' ' ' ' ' ' Susana Santos Silva, Torbjorn Zetterberg, Hampus Lindwall - If Nothing Else Жанр: Avant-Garde Jazz, Free Improvisation
Страна-производитель диска: Portugal
Год издания: 2015
Издатель (лейбл): Clean Feed
Номер по каталогу: CF348
Аудиокодек: FLAC (*.flac)
Тип рипа: tracks+.cue
Битрейт аудио: lossless
Продолжительность: 49:20
Источник (релизер): спасибо 6060842
Наличие сканов: нет
Треклист:
01. Disance
02. First Initiativte
03. Atonality
04. Stop Chords
05. Fiddling
06. Power Walk
07. One Note Each
08. Second Initiative
09. Arpeggios
10. Dialogue
11. One Note Song
 
Лог создания рипа
X Lossless Decoder version 20141129a (148.2)
XLD extraction logfile from 2015-10-27 23:26:48 +0300
Susana Santos Silva, Torbjörn Zetterberg, Hampus Lindwall / If Nothing Else
Used drive : HL-DT-ST DVDRW GX30N (revision RP09)
Media type : Pressed CD
Ripper mode : XLD Secure Ripper
Disable audio cache : OK for the drive with a cache less than 1375KiB
Make use of C2 pointers : NO
Read offset correction : 6
Max retry count : 400
Gap status : Analyzed, Appended (except HTOA)
TOC of the extracted CD
Track | Start | Length | Start sector | End sector
---------------------------------------------------------
1 | 00:00:00 | 09:15:30 | 0 | 41654
2 | 09:15:30 | 02:20:54 | 41655 | 52208
3 | 11:36:09 | 06:40:44 | 52209 | 82252
4 | 18:16:53 | 04:55:00 | 82253 | 104377
5 | 23:11:53 | 04:03:23 | 104378 | 122625
6 | 27:15:01 | 02:58:47 | 122626 | 136022
7 | 30:13:48 | 05:22:45 | 136023 | 160217
8 | 35:36:18 | 01:38:47 | 160218 | 167614
9 | 37:14:65 | 03:38:21 | 167615 | 183985
10 | 40:53:11 | 03:39:11 | 183986 | 200421
11 | 44:32:22 | 05:20:17 | 200422 | 224438
AccurateRip Summary
Disc not found in AccurateRip DB.
All Tracks
Album gain : -4.83 dB
Peak : 0.996338
Statistics
Read error : 0
Jitter error (maybe fixed) : 0
Retry sector count : 0
Damaged sector count : 0
Track 01
Filename : /Users/BK/Music/Grabbed/Susana Santos Silva, Torbjorn Zetterberg, Hampus Lindwall/F 2015 - If Nothing Else/01 - Distance.flac
Pre-gap length : 00:02:00
Track gain : -3.23 dB
Peak : 0.996307
CRC32 hash (test run) : 3E711FA4
CRC32 hash : 3E711FA4
CRC32 hash (skip zero) : 4834278D
AccurateRip v1 signature : F726BCE2
AccurateRip v2 signature : 9982F595
->Track not present in AccurateRip database.
Statistics
Read error : 0
Jitter error (maybe fixed) : 0
Retry sector count : 0
Damaged sector count : 0
Track 02
Filename : /Users/BK/Music/Grabbed/Susana Santos Silva, Torbjorn Zetterberg, Hampus Lindwall/F 2015 - If Nothing Else/02 - First Initiative.flac
Pre-gap length : 00:02:74
Track gain : -4.79 dB
Peak : 0.996307
CRC32 hash (test run) : 13E0FE6F
CRC32 hash : 13E0FE6F
CRC32 hash (skip zero) : 7D4E21C9
AccurateRip v1 signature : 258272F8
AccurateRip v2 signature : 344CF8BA
->Track not present in AccurateRip database.
Statistics
Read error : 0
Jitter error (maybe fixed) : 0
Retry sector count : 0
Damaged sector count : 0
Track 03
Filename : /Users/BK/Music/Grabbed/Susana Santos Silva, Torbjorn Zetterberg, Hampus Lindwall/F 2015 - If Nothing Else/03 - Atonality.flac
Pre-gap length : 00:02:74
Track gain : -3.87 dB
Peak : 0.996338
CRC32 hash (test run) : 7C85EEDD
CRC32 hash : 7C85EEDD
CRC32 hash (skip zero) : 859B0DBF
AccurateRip v1 signature : A3592923
AccurateRip v2 signature : 01252328
->Track not present in AccurateRip database.
Statistics
Read error : 0
Jitter error (maybe fixed) : 0
Retry sector count : 0
Damaged sector count : 0
Track 04
Filename : /Users/BK/Music/Grabbed/Susana Santos Silva, Torbjorn Zetterberg, Hampus Lindwall/F 2015 - If Nothing Else/04 - Stop Chords.flac
Pre-gap length : 00:02:74
Track gain : -3.75 dB
Peak : 0.996338
CRC32 hash (test run) : 82D750CC
CRC32 hash : 82D750CC
CRC32 hash (skip zero) : C9322F58
AccurateRip v1 signature : B2C94F46
AccurateRip v2 signature : EA986B40
->Track not present in AccurateRip database.
Statistics
Read error : 0
Jitter error (maybe fixed) : 0
Retry sector count : 0
Damaged sector count : 0
Track 05
Filename : /Users/BK/Music/Grabbed/Susana Santos Silva, Torbjorn Zetterberg, Hampus Lindwall/F 2015 - If Nothing Else/05 - Fiddling.flac
Pre-gap length : 00:02:74
Track gain : -5.67 dB
Peak : 0.996338
CRC32 hash (test run) : 459F9051
CRC32 hash : 459F9051
CRC32 hash (skip zero) : 4472C6B9
AccurateRip v1 signature : 266C7093
AccurateRip v2 signature : 35A0A905
->Track not present in AccurateRip database.
Statistics
Read error : 0
Jitter error (maybe fixed) : 0
Retry sector count : 0
Damaged sector count : 0
Track 06
Filename : /Users/BK/Music/Grabbed/Susana Santos Silva, Torbjorn Zetterberg, Hampus Lindwall/F 2015 - If Nothing Else/06 - Power Walk.flac
Pre-gap length : 00:02:74
Track gain : -5.26 dB
Peak : 0.996307
CRC32 hash (test run) : F4DE9D24
CRC32 hash : F4DE9D24
CRC32 hash (skip zero) : 19B2A0A0
AccurateRip v1 signature : 7613BC21
AccurateRip v2 signature : A65E7CEC
->Track not present in AccurateRip database.
Statistics
Read error : 0
Jitter error (maybe fixed) : 0
Retry sector count : 0
Damaged sector count : 0
Track 07
Filename : /Users/BK/Music/Grabbed/Susana Santos Silva, Torbjorn Zetterberg, Hampus Lindwall/F 2015 - If Nothing Else/07 - One Note Each.flac
Pre-gap length : 00:02:74
Track gain : -6.17 dB
Peak : 0.996307
CRC32 hash (test run) : 1E3C9E83
CRC32 hash : 1E3C9E83
CRC32 hash (skip zero) : 5E8A7DB9
AccurateRip v1 signature : F731E685
AccurateRip v2 signature : 1B78D4CE
->Track not present in AccurateRip database.
Statistics
Read error : 0
Jitter error (maybe fixed) : 0
Retry sector count : 0
Damaged sector count : 0
Track 08
Filename : /Users/BK/Music/Grabbed/Susana Santos Silva, Torbjorn Zetterberg, Hampus Lindwall/F 2015 - If Nothing Else/08 - Second Initiative.flac
Pre-gap length : 00:04:74
Track gain : -6.18 dB
Peak : 0.996338
CRC32 hash (test run) : E6DA7D68
CRC32 hash : E6DA7D68
CRC32 hash (skip zero) : 3C2A8BB1
AccurateRip v1 signature : 73A5434E
AccurateRip v2 signature : 66740E82
->Track not present in AccurateRip database.
Statistics
Read error : 0
Jitter error (maybe fixed) : 0
Retry sector count : 0
Damaged sector count : 0
Track 09
Filename : /Users/BK/Music/Grabbed/Susana Santos Silva, Torbjorn Zetterberg, Hampus Lindwall/F 2015 - If Nothing Else/09 - Arpeggios.flac
Pre-gap length : 00:02:74
Track gain : -3.58 dB
Peak : 0.996277
CRC32 hash (test run) : 5326A595
CRC32 hash : 5326A595
CRC32 hash (skip zero) : EDC81298
AccurateRip v1 signature : 1D606F54
AccurateRip v2 signature : E19C7AEC
->Track not present in AccurateRip database.
Statistics
Read error : 0
Jitter error (maybe fixed) : 0
Retry sector count : 0
Damaged sector count : 0
Track 10
Filename : /Users/BK/Music/Grabbed/Susana Santos Silva, Torbjorn Zetterberg, Hampus Lindwall/F 2015 - If Nothing Else/10 - Dialogue.flac
Pre-gap length : 00:02:74
Track gain : -3.27 dB
Peak : 0.996338
CRC32 hash (test run) : 5D95E262
CRC32 hash : 5D95E262
CRC32 hash (skip zero) : 71748FE9
AccurateRip v1 signature : 87CE7A43
AccurateRip v2 signature : A0DB1209
->Track not present in AccurateRip database.
Statistics
Read error : 0
Jitter error (maybe fixed) : 0
Retry sector count : 0
Damaged sector count : 0
Track 11
Filename : /Users/BK/Music/Grabbed/Susana Santos Silva, Torbjorn Zetterberg, Hampus Lindwall/F 2015 - If Nothing Else/11 - One Note Song.flac
Pre-gap length : 00:02:74
Track gain : -6.09 dB
Peak : 0.996277
CRC32 hash (test run) : 460A61C8
CRC32 hash : 460A61C8
CRC32 hash (skip zero) : DE964EB5
AccurateRip v1 signature : E25970E2
AccurateRip v2 signature : 55D71FD3
->Track not present in AccurateRip database.
Statistics
Read error : 0
Jitter error (maybe fixed) : 0
Retry sector count : 0
Damaged sector count : 0
No errors occurred
End of status report
-----BEGIN XLD SIGNATURE-----
9bocxgz3fb8rWByQLh5zjz2P1LjMv2ELIuJrE6jYpYZ5882.ZoSP_N14esOUUynRjWa7fgv8UyYnr7uXxHnxoSpAetA6vE40h44BTp8
-----END XLD SIGNATURE-----
 
Содержание индексной карты (.CUE)
TITLE "If Nothing Else"
PERFORMER "Susana Santos Silva, Torbjörn Zetterberg, Hampus Lindwall"
CATALOG 5609063003482
REM GENRE "Free Jazz"
REM DATE "2015"
REM DISCNUMBER 1
REM TOTALDISCS 1
REM DISCID AA0BB00B
REM REPLAYGAIN_ALBUM_GAIN -4.83 dB
REM REPLAYGAIN_ALBUM_PEAK 0.996338
REM COMPILATION TRUE
FILE "01 - Distance.flac" WAVE
TRACK 01 AUDIO
TITLE "Distance"
PERFORMER "Susana Santos Silva, Torbjörn Zetterberg, Hampus Lindwall"
ISRC PTNF11509327
REM REPLAYGAIN_TRACK_GAIN -3.23 dB
REM REPLAYGAIN_TRACK_PEAK 0.996307
INDEX 01 00:00:00
TRACK 02 AUDIO
TITLE "First Initiative"
PERFORMER "Susana Santos Silva, Torbjörn Zetterberg, Hampus Lindwall"
ISRC PTNF11509328
REM REPLAYGAIN_TRACK_GAIN -4.79 dB
REM REPLAYGAIN_TRACK_PEAK 0.996307
INDEX 00 09:12:31
FILE "02 - First Initiative.flac" WAVE
INDEX 01 00:00:00
TRACK 03 AUDIO
TITLE "Atonality"
PERFORMER "Susana Santos Silva, Torbjörn Zetterberg, Hampus Lindwall"
ISRC PTNF11509329
REM REPLAYGAIN_TRACK_GAIN -3.87 dB
REM REPLAYGAIN_TRACK_PEAK 0.996338
INDEX 00 02:17:55
FILE "03 - Atonality.flac" WAVE
INDEX 01 00:00:00
TRACK 04 AUDIO
TITLE "Stop Chords"
PERFORMER "Susana Santos Silva, Torbjörn Zetterberg, Hampus Lindwall"
ISRC PTNF11509330
REM REPLAYGAIN_TRACK_GAIN -3.75 dB
REM REPLAYGAIN_TRACK_PEAK 0.996338
INDEX 00 06:37:45
FILE "04 - Stop Chords.flac" WAVE
INDEX 01 00:00:00
TRACK 05 AUDIO
TITLE "Fiddling"
PERFORMER "Susana Santos Silva, Torbjörn Zetterberg, Hampus Lindwall"
ISRC PTNF11509331
REM REPLAYGAIN_TRACK_GAIN -5.67 dB
REM REPLAYGAIN_TRACK_PEAK 0.996338
INDEX 00 04:52:01
FILE "05 - Fiddling.flac" WAVE
INDEX 01 00:00:00
TRACK 06 AUDIO
TITLE "Power Walk"
PERFORMER "Susana Santos Silva, Torbjörn Zetterberg, Hampus Lindwall"
ISRC PTNF11509332
REM REPLAYGAIN_TRACK_GAIN -5.26 dB
REM REPLAYGAIN_TRACK_PEAK 0.996307
INDEX 00 04:00:24
FILE "06 - Power Walk.flac" WAVE
INDEX 01 00:00:00
TRACK 07 AUDIO
TITLE "One Note Each"
PERFORMER "Susana Santos Silva, Torbjörn Zetterberg, Hampus Lindwall"
ISRC PTNF11509333
REM REPLAYGAIN_TRACK_GAIN -6.17 dB
REM REPLAYGAIN_TRACK_PEAK 0.996307
INDEX 00 02:55:48
FILE "07 - One Note Each.flac" WAVE
INDEX 01 00:00:00
TRACK 08 AUDIO
TITLE "Second Initiative"
PERFORMER "Susana Santos Silva, Torbjörn Zetterberg, Hampus Lindwall"
ISRC PTNF11509334
REM REPLAYGAIN_TRACK_GAIN -6.18 dB
REM REPLAYGAIN_TRACK_PEAK 0.996338
INDEX 00 05:17:46
FILE "08 - Second Initiative.flac" WAVE
INDEX 01 00:00:00
TRACK 09 AUDIO
TITLE "Arpeggios"
PERFORMER "Susana Santos Silva, Torbjörn Zetterberg, Hampus Lindwall"
ISRC PTNF11509335
REM REPLAYGAIN_TRACK_GAIN -3.58 dB
REM REPLAYGAIN_TRACK_PEAK 0.996277
INDEX 00 01:35:48
FILE "09 - Arpeggios.flac" WAVE
INDEX 01 00:00:00
TRACK 10 AUDIO
TITLE "Dialogue"
PERFORMER "Susana Santos Silva, Torbjörn Zetterberg, Hampus Lindwall"
ISRC PTNF11509336
REM REPLAYGAIN_TRACK_GAIN -3.27 dB
REM REPLAYGAIN_TRACK_PEAK 0.996338
INDEX 00 03:35:22
FILE "10 - Dialogue.flac" WAVE
INDEX 01 00:00:00
TRACK 11 AUDIO
TITLE "One Note Song"
PERFORMER "Susana Santos Silva, Torbjörn Zetterberg, Hampus Lindwall"
ISRC PTNF11509337
REM REPLAYGAIN_TRACK_GAIN -6.09 dB
REM REPLAYGAIN_TRACK_PEAK 0.996277
INDEX 00 03:36:12
FILE "11 - One Note Song.flac" WAVE
INDEX 01 00:00:00
 
Об альбоме
These are sounds of great distances, with an unusual line-up of trumpet, bass and organ, played by Susana Santos Silva, Torbjörn Zetterberg and Hampus Lindwall. Santos Silva and Zetterberg will be known to our readers, but Lindwall probably not, at least not to me, and that's because he is mainly a performer of classical contemporary music, and he also is the "titular organist of the Saint-Esprit Church in Paris".
So the sound of great distances, with the trumpet played with as if from the other end of a huge resonating space, with the organ offering an incredible somber and eery depth, and the bass is in between, probably closest to the listener, but equally epic in nature, and can be at times reminiscent of the Scandinavian sound of some ECM albums. It is expansive, open-ended, grand. Yet in contrast to the ECM sound, it has a darkness that is at times uncanny, as on "Atonality", where the muted horn plays a sad improvisation supported by quietly wailing arco bass and the distant organ, that gives a single bass drone and a few sustained chords, and then the whole intense edifice reduces itself to atonal, barely audible sounds.
The album consists of eleven improvisations, and they keep their unique approach to the overall sound and interaction in a very consistent way, often fascinating, daring, and above all mesmerising and moving. Even the last track, "One Note Song", is exactly what it says, yet when the beginning sounds like the sustained sound of a fog horn of a distant ship, the shifts in intensity and timbre turn it into something more somber and devastating, with just one note, just to showcase the vision behind the music and the quality of the three musicians to deliver it.
4,5/5 stars
(Stef, freejazzblog.com)
 
Состав

Susana Santos Silva - trumpet & flugelhorn
Torbjörn Zetterberg - double bass
Hampus Lindwall - organ
По всем вопросам пишите личное сообщение пользователю M0p94ok.
17:32
197
Нет комментариев. Ваш будет первым!