Вы используете незарегистрированную версию компонента "Вкладки"!

Поиск

(free jazz) [cd] Dave Rempis, Tim Daisy - Second Spring (2013), FLAC (tracks+.cue), lossless

(free jazz) [cd] Dave Rempis, Tim Daisy - Second Spring (2013), FLAC (tracks+.cue), lossless
Треклист:
(free jazz) [cd] Dave Rempis, Tim Daisy - Second Spring (2013), FLAC (tracks+.cue), lossless


Dave Rempis, Tim Daisy - Second Spring (2013)

Жанр: free jazz
Год выпуска: 2013
Издатель (лейбл):Aerophonic Records / 003
Формат: FLAC (tracks+.cue)
Битрейт аудио: lossless
Продолжительность54`38
Источник: what.cd
Dave Rempis - Alto Saxophone, Tenor Saxophone, Baritone Saxophone, Producer
Tim Daisy – Percussion

tracks

1 Impasto 11:53
2 Numbers Lost 7:14
3 Three Flags 5:03
4 Frijoleo 16:41
5 For R. Barry 2:43
6 Gerosten And Gesalten 10:45


 
.log
X Lossless Decoder version 20140504 (147.0)
XLD extraction logfile from 2014-09-07 15:22:36 +0400
Dave Rempis, Tim Daisy / Second Spring
Used drive : ASUS SDRW-08D2S-U (revision A611)
Media type : Pressed CD
Ripper mode : XLD Secure Ripper
Disable audio cache : OK for the drive with a cache less than 1375KiB
Make use of C2 pointers : NO
Read offset correction : 6
Max retry count : 100
Gap status : Analyzed, Appended (except HTOA)
TOC of the extracted CD
Track | Start | Length | Start sector | End sector
---------------------------------------------------------
1 | 00:00:00 | 11:56:71 | 0 | 53770
2 | 11:56:71 | 07:17:28 | 53771 | 86573
3 | 19:14:24 | 05:06:59 | 86574 | 109582
4 | 24:21:08 | 16:44:62 | 109583 | 184944
5 | 41:05:70 | 02:46:11 | 184945 | 197405
6 | 43:52:06 | 10:45:41 | 197406 | 245821
AccurateRip Summary
Disc not found in AccurateRip DB.
All Tracks
Album gain : -4.75 dB
Peak : 1.000000
Statistics
Read error : 0
Jitter error (maybe fixed) : 0
Retry sector count : 0
Damaged sector count : 0
Track 01
Filename : /Users/Shared/Grabbed/Dave Rempis, Tim Daisy - 2013 - Second Spring [FLAC]/01 - Impasto.flac
Pre-gap length : 00:02:00
Track gain : -4.50 dB
Peak : 1.000000
CRC32 hash (test run) : 3DE935D1
CRC32 hash : 3DE935D1
CRC32 hash (skip zero) : 087CC4CE
AccurateRip v1 signature : 69ABBFB9
AccurateRip v2 signature : 76DEFC75
->Track not present in AccurateRip database.
Statistics
Read error : 0
Jitter error (maybe fixed) : 0
Retry sector count : 0
Damaged sector count : 0
Track 02
Filename : /Users/Shared/Grabbed/Dave Rempis, Tim Daisy - 2013 - Second Spring [FLAC]/02 - Numbers Lost.flac
Pre-gap length : 00:03:00
Track gain : -3.14 dB
Peak : 1.000000
CRC32 hash (test run) : E9EE8DED
CRC32 hash : E9EE8DED
CRC32 hash (skip zero) : 6CC4B747
AccurateRip v1 signature : A24A4BB2
AccurateRip v2 signature : BC2262C1
->Track not present in AccurateRip database.
Statistics
Read error : 0
Jitter error (maybe fixed) : 0
Retry sector count : 0
Damaged sector count : 0
Track 03
Filename : /Users/Shared/Grabbed/Dave Rempis, Tim Daisy - 2013 - Second Spring [FLAC]/03 - Three Flags.flac
Pre-gap length : 00:03:00
Track gain : -6.83 dB
Peak : 1.000000
CRC32 hash (test run) : 5CCF9845
CRC32 hash : 5CCF9845
CRC32 hash (skip zero) : 35411D64
AccurateRip v1 signature : F6ADE28F
AccurateRip v2 signature : D3A889BB
->Track not present in AccurateRip database.
Statistics
Read error : 0
Jitter error (maybe fixed) : 0
Retry sector count : 0
Damaged sector count : 0
Track 04
Filename : /Users/Shared/Grabbed/Dave Rempis, Tim Daisy - 2013 - Second Spring [FLAC]/04 - Frijoleo.flac
Pre-gap length : 00:03:00
Track gain : -4.45 dB
Peak : 1.000000
CRC32 hash (test run) : 84A9C7C4
CRC32 hash : 84A9C7C4
CRC32 hash (skip zero) : CFC5494A
AccurateRip v1 signature : 4FD2829B
AccurateRip v2 signature : 8AAC1E6B
->Track not present in AccurateRip database.
Statistics
Read error : 0
Jitter error (maybe fixed) : 0
Retry sector count : 0
Damaged sector count : 0
Track 05
Filename : /Users/Shared/Grabbed/Dave Rempis, Tim Daisy - 2013 - Second Spring [FLAC]/05 - For R. Barry.flac
Pre-gap length : 00:03:00
Track gain : -1.45 dB
Peak : 0.792053
CRC32 hash (test run) : D4692251
CRC32 hash : D4692251
CRC32 hash (skip zero) : D206F7A0
AccurateRip v1 signature : B47EC03A
AccurateRip v2 signature : 2C1A8385
->Track not present in AccurateRip database.
Statistics
Read error : 0
Jitter error (maybe fixed) : 0
Retry sector count : 0
Damaged sector count : 0
Track 06
Filename : /Users/Shared/Grabbed/Dave Rempis, Tim Daisy - 2013 - Second Spring [FLAC]/06 - Gerosten and Gesalten.flac
Pre-gap length : 00:03:00
Track gain : -3.04 dB
Peak : 1.000000
CRC32 hash (test run) : 24CB4650
CRC32 hash : 24CB4650
CRC32 hash (skip zero) : B7E7B4C7
AccurateRip v1 signature : 5174D84B
AccurateRip v2 signature : B0339251
->Track not present in AccurateRip database.
Statistics
Read error : 0
Jitter error (maybe fixed) : 0
Retry sector count : 0
Damaged sector count : 0
No errors occurred
End of status report
-----BEGIN XLD SIGNATURE-----
R6Djgp7DQO_T7khpB.hgSCGJSG5okVtH75ObvlLSm3LTvvBIDNzd7Uyz4QKNVJ2ixdmN6p8RLvz396R.kC46TsQFcdhJq9RA4rvg4uO
-----END XLD SIGNATURE-----
 
.cue
TITLE "Second Spring"
PERFORMER "Dave Rempis, Tim Daisy"
REM GENRE "Free Jazz"
REM DATE "2013"
REM DISCNUMBER 1
REM TOTALDISCS 1
REM DISCID 4F0CCD06
REM REPLAYGAIN_ALBUM_GAIN -4.75 dB
REM REPLAYGAIN_ALBUM_PEAK 1.000000
FILE "01 - Impasto.flac" WAVE
TRACK 01 AUDIO
TITLE "Impasto"
PERFORMER "Dave Rempis, Tim Daisy"
SONGWRITER "Dave Rempis, Tim Daisy"
ISRC QMCYT1300301
REM REPLAYGAIN_TRACK_GAIN -4.50 dB
REM REPLAYGAIN_TRACK_PEAK 1.000000
INDEX 01 00:00:00
TRACK 02 AUDIO
TITLE "Numbers Lost"
PERFORMER "Dave Rempis, Tim Daisy"
SONGWRITER "Dave Rempis, Tim Daisy"
ISRC QMCYT1300302
REM REPLAYGAIN_TRACK_GAIN -3.14 dB
REM REPLAYGAIN_TRACK_PEAK 1.000000
INDEX 00 11:53:71
FILE "02 - Numbers Lost.flac" WAVE
INDEX 01 00:00:00
TRACK 03 AUDIO
TITLE "Three Flags"
PERFORMER "Dave Rempis, Tim Daisy"
SONGWRITER "Dave Rempis, Tim Daisy"
ISRC QMCYT1300303
REM REPLAYGAIN_TRACK_GAIN -6.83 dB
REM REPLAYGAIN_TRACK_PEAK 1.000000
INDEX 00 07:14:28
FILE "03 - Three Flags.flac" WAVE
INDEX 01 00:00:00
TRACK 04 AUDIO
TITLE "Frijoleo"
PERFORMER "Dave Rempis, Tim Daisy"
SONGWRITER "Dave Rempis, Tim Daisy"
ISRC QMCYT1300304
REM REPLAYGAIN_TRACK_GAIN -4.45 dB
REM REPLAYGAIN_TRACK_PEAK 1.000000
INDEX 00 05:03:59
FILE "04 - Frijoleo.flac" WAVE
INDEX 01 00:00:00
TRACK 05 AUDIO
TITLE "For R. Barry"
PERFORMER "Dave Rempis, Tim Daisy"
SONGWRITER "Dave Rempis, Tim Daisy"
ISRC QMCYT1300305
REM REPLAYGAIN_TRACK_GAIN -1.45 dB
REM REPLAYGAIN_TRACK_PEAK 0.792053
INDEX 00 16:41:62
FILE "05 - For R. Barry.flac" WAVE
INDEX 01 00:00:00
TRACK 06 AUDIO
TITLE "Gerosten and Gesalten"
PERFORMER "Dave Rempis, Tim Daisy"
SONGWRITER "Dave Rempis, Tim Daisy"
ISRC QMCYT1300306
REM REPLAYGAIN_TRACK_GAIN -3.04 dB
REM REPLAYGAIN_TRACK_PEAK 1.000000
INDEX 00 02:43:11
FILE "06 - Gerosten and Gesalten.flac" WAVE
INDEX 01 00:00:00
http://www.discogs.com/RempisDaisy-Duo-Second-Spring/release/5471447
другие релизы
По всем вопросам пишите личное сообщение пользователю M0p94ok.
17:29
231
Нет комментариев. Ваш будет первым!