Вы используете незарегистрированную версию компонента "Вкладки"!

Поиск

(Avant-Garde Jazz, Free Improvisation, Emanem) [CD] John Russell & Roger Turner - The Second Sky - 2001, FLAC (tracks+.cue), lossless

(Avant-Garde Jazz, Free Improvisation, Emanem) [CD] John Russell & Roger Turner - The Second Sky - 2001, FLAC (tracks+.cue), lossless
Треклист:
John Russell & Roger Turner / The Second Sky
Жанр: Avant-Garde Jazz, Free Improvisation, Emanem
Носитель: CD
Страна-производитель диска: UK
Год издания: 2001
Издатель (лейбл): Emanem
Номер по каталогу: 4058
Страна: UK
Аудиокодек: FLAC (*.flac)
Тип рипа: tracks+.cue
Битрейт аудио: lossless
Продолжительность: 69:11
Источник (релизер): waffles.fm, tetroid
Наличие сканов в содержимом раздачи:
Треклист:
1 Fire At My Ribs 10:01
2 2.30 5:59
3 Piercing The Second Sky 10:06
4 Parapet 3:00
5 Eye Stone 6:26
6 Slowly Burning Word 9:52
7 Dunt 4:41
8 Fulcrum 3:26
9 The Dodger 15:06
 
Лог создания рипа
Exact Audio Copy V1.0 beta 3 from 29. August 2011
EAC extraction logfile from 24. September 2013, 8:25
John Russell & Roger Turner / The Second Sky
Used drive : LITE-ON DVD SOHD-16P9S Adapter: 0 ID: 0
Read mode : Secure
Utilize accurate stream : Yes
Defeat audio cache : Yes
Make use of C2 pointers : No
Read offset correction : 6
Overread into Lead-In and Lead-Out : No
Fill up missing offset samples with silence : Yes
Delete leading and trailing silent blocks : No
Null samples used in CRC calculations : Yes
Used interface : Native Win32 interface for Win NT & 2000
Gap handling : Appended to previous track
Used output format : User Defined Encoder
Selected bitrate : 1024 kBit/s
Quality : High
Add ID3 tag : No
Command line compressor : C:\EAC\Exact Audio Copy\FLAC\flac.exe
Additional command line options : -8 -V -T "ARTIST=%artist%" -T "TITLE=%title%" -T "ALBUM=%albumtitle%" -T "DATE=%year%" -T "TRACKNUMBER=%tracknr%" -T "GENRE=%genre%" -T "PERFORMER=%albuminterpret%" -T "COMPOSER=%composer%" %haslyrics%--tag-from-file=LYRICS="%lyricsfile%"%haslyrics% -T "ALBUMARTIST=%albumartist%" -T "DISCNUMBER=%cdnumber%" -T "TOTALDISCS=%totalcds%" -T "TOTALTRACKS=%numtracks%" -T "COMMENT=%comment%" %source% -o %dest%
TOC of the extracted CD
Track | Start | Length | Start sector | End sector
---------------------------------------------------------
1 | 0:00.00 | 10:05.14 | 0 | 45388
2 | 10:05.14 | 6:02.73 | 45389 | 72611
3 | 16:08.12 | 10:10.29 | 72612 | 118390
4 | 26:18.41 | 3:04.58 | 118391 | 132248
5 | 29:23.24 | 6:29.71 | 132249 | 161494
6 | 35:53.20 | 9:56.01 | 161495 | 206195
7 | 45:49.21 | 4:45.01 | 206196 | 227571
8 | 50:34.22 | 3:30.33 | 227572 | 243354
9 | 54:04.55 | 15:06.54 | 243355 | 311358
Track 1
Filename C:\EAC-rips\John Russell & Roger Turner - The Second Sky\01 - Fire At My Ribs.wav
Pre-gap length 0:00:02.00
Peak level 100.0 %
Extraction speed 5.7 X
Track quality 99.9 %
Test CRC BBEA7158
Copy CRC BBEA7158
Track not present in AccurateRip database
Copy OK
Track 2
Filename C:\EAC-rips\John Russell & Roger Turner - The Second Sky\02 - 2.30.wav
Pre-gap length 0:00:04.00
Peak level 100.0 %
Extraction speed 6.8 X
Track quality 100.0 %
Test CRC 781F266E
Copy CRC 781F266E
Track not present in AccurateRip database
Copy OK
Track 3
Filename C:\EAC-rips\John Russell & Roger Turner - The Second Sky\03 - Piercing The Second Sky.wav
Pre-gap length 0:00:04.00
Peak level 100.0 %
Extraction speed 8.0 X
Track quality 100.0 %
Test CRC 228B93A2
Copy CRC 228B93A2
Track not present in AccurateRip database
Copy OK
Track 4
Filename C:\EAC-rips\John Russell & Roger Turner - The Second Sky\04 - Parapet.wav
Pre-gap length 0:00:04.00
Peak level 37.9 %
Extraction speed 7.7 X
Track quality 100.0 %
Test CRC 21D02917
Copy CRC 21D02917
Track not present in AccurateRip database
Copy OK
Track 5
Filename C:\EAC-rips\John Russell & Roger Turner - The Second Sky\05 - Eye Stone.wav
Pre-gap length 0:00:04.00
Peak level 100.0 %
Extraction speed 8.7 X
Track quality 100.0 %
Test CRC 4D9DCCBD
Copy CRC 4D9DCCBD
Track not present in AccurateRip database
Copy OK
Track 6
Filename C:\EAC-rips\John Russell & Roger Turner - The Second Sky\06 - Slowly Burning Word.wav
Pre-gap length 0:00:04.00
Peak level 100.0 %
Extraction speed 9.5 X
Track quality 100.0 %
Test CRC 775AB876
Copy CRC 775AB876
Track not present in AccurateRip database
Copy OK
Track 7
Filename C:\EAC-rips\John Russell & Roger Turner - The Second Sky\07 - Dunt.wav
Pre-gap length 0:00:04.00
Peak level 100.0 %
Extraction speed 9.3 X
Track quality 100.0 %
Test CRC F7E636A6
Copy CRC F7E636A6
Track not present in AccurateRip database
Copy OK
Track 8
Filename C:\EAC-rips\John Russell & Roger Turner - The Second Sky\08 - Fulcrum.wav
Pre-gap length 0:00:04.00
Peak level 100.0 %
Extraction speed 7.7 X
Track quality 99.9 %
Test CRC EB108DAC
Copy CRC EB108DAC
Track not present in AccurateRip database
Copy OK
Track 9
Filename C:\EAC-rips\John Russell & Roger Turner - The Second Sky\09 - The Dodger.wav
Pre-gap length 0:00:04.00
Peak level 100.0 %
Extraction speed 6.8 X
Track quality 99.8 %
Test CRC 325575A1
Copy CRC 325575A1
Track not present in AccurateRip database
Copy OK
None of the tracks are present in the AccurateRip database
No errors occurred
End of status report
---- CUETools DB Plugin V2.1.3
[CTDB TOCID: TgeIhtEaoLAZ9hKlgTXR.xUjYB4-] disk not present in database, Submit result: TgeIhtEaoLAZ9hKlgTXR.xUjYB4- has been uploaded
==== Log checksum F592E816A561C76BBE67A1BC25CFDF56E409D6B02B162829FCF7A39999004EA2 ====
 
Содержание индексной карты (.CUE)
REM DATE 2001
REM DISCID 77103709
REM COMMENT "ExactAudioCopy v1.0b3"
CATALOG 5030243405824
PERFORMER " John Russell & Roger Turner"
TITLE "The Second Sky"
FILE "01 - Fire At My Ribs.wav" WAVE
TRACK 01 AUDIO
TITLE "Fire At My Ribs"
PERFORMER " John Russell & Roger Turner"
INDEX 01 00:00:00
TRACK 02 AUDIO
TITLE "2.30"
PERFORMER " John Russell & Roger Turner"
INDEX 00 10:01:14
FILE "02 - 2.30.wav" WAVE
INDEX 01 00:00:00
TRACK 03 AUDIO
TITLE "Piercing The Second Sky"
PERFORMER " John Russell & Roger Turner"
INDEX 00 05:58:73
FILE "03 - Piercing The Second Sky.wav" WAVE
INDEX 01 00:00:00
TRACK 04 AUDIO
TITLE "Parapet"
PERFORMER " John Russell & Roger Turner"
INDEX 00 10:06:29
FILE "04 - Parapet.wav" WAVE
INDEX 01 00:00:00
TRACK 05 AUDIO
TITLE "Eye Stone"
PERFORMER " John Russell & Roger Turner"
INDEX 00 03:00:58
FILE "05 - Eye Stone.wav" WAVE
INDEX 01 00:00:00
TRACK 06 AUDIO
TITLE "Slowly Burning Word"
PERFORMER " John Russell & Roger Turner"
INDEX 00 06:25:71
FILE "06 - Slowly Burning Word.wav" WAVE
INDEX 01 00:00:00
TRACK 07 AUDIO
TITLE "Dunt"
PERFORMER " John Russell & Roger Turner"
INDEX 00 09:52:01
FILE "07 - Dunt.wav" WAVE
INDEX 01 00:00:00
TRACK 08 AUDIO
TITLE "Fulcrum"
PERFORMER " John Russell & Roger Turner"
INDEX 00 04:41:01
FILE "08 - Fulcrum.wav" WAVE
INDEX 01 00:00:00
TRACK 09 AUDIO
TITLE "The Dodger"
PERFORMER " John Russell & Roger Turner"
INDEX 00 03:26:33
FILE "09 - The Dodger.wav" WAVE
INDEX 01 00:00:00
 
Лог проверки качества
d:\>d:\aucdtect -d/-m0 d:\zzz\*.wav
auCDtect: CD records authenticity detector, version 0.8.2
Copyright (c) 2004 Oleg Berngardt. All rights reserved.
Copyright (c) 2004 Alexander Djourik. All rights reserved.
------------------------------------------------------------
Processing file: [01. Fire At My Ribs.wav]
------------------------------------------------------------
This track looks like CDDA with probability 100%
------------------------------------------------------------
Processing file: [02. 2.30.wav]
------------------------------------------------------------
This track looks like CDDA with probability 100%
------------------------------------------------------------
Processing file: [03. Piercing The Second Sky.wav]
------------------------------------------------------------
This track looks like CDDA with probability 100%
------------------------------------------------------------
Processing file: [04. Parapet.wav]
------------------------------------------------------------
This track looks like CDDA with probability 100%
------------------------------------------------------------
Processing file: [05. Eye Stone.wav]
------------------------------------------------------------
This track looks like CDDA with probability 100%
------------------------------------------------------------
Processing file: [06. Slowly Burning Word.wav]
------------------------------------------------------------
This track looks like CDDA with probability 100%
------------------------------------------------------------
Processing file: [07. Dunt.wav]
------------------------------------------------------------
This track looks like CDDA with probability 99%
------------------------------------------------------------
Processing file: [08. Fulcrum.wav]
------------------------------------------------------------
This track looks like CDDA with probability 100%
------------------------------------------------------------
Processing file: [09. The Dodger.wav]
------------------------------------------------------------
This track looks like CDDA with probability 99%
------------------------------------------------------------
Final Conclusion:
------------------------------------------------------------
These tracks looks like CDDA with probability 100%
Доп. информация:
 
AMG Review
It is not surprising if John Russell and Roger Turner sound like a single voice -- as the CD leaflet notes, their first duo gig was in 1977, preceding the instant studio recording by more than 24 years! London's Emanem label has done a yeoman's job in documenting these two highly individualistic, uncharacteristically adventurous fellows, who twist tones with an acoustic clarity that belies the complexity of the final product. Their music is full of surprises, although -- to be sure -- those who have followed the careers of these experienced revolutionaries will be accustomed to the unique blends sprouting from their instruments. As with all of their concoctions, there is never any melody, the pieces being fully improvised. The volume is fairly uniform, neither unduly loud nor soft. The nuance is in the texture, which is plenty varied. Scrapes, dings, and all sorts of rattled sounds come and go, with Russell's relaxed guitar a fine foil for Turner's less conventional percussive outbursts. Very much a product of the British avant-garde, free improvisation scene in their serious radicalism, these nine numbers surprise over and over with inventiveness and creativity. The atonal, meandering qualities assure that this recording will never, ever hit the charts nor receive any commercial radio air time, but that says nothing about the real quality and joy this music of extremes is likely bring to a dedicated, if tiny, contingent, who will revel in its mysteries.
 
Состав
Drums, Percussion – Roger Turner
Guitar [Acoustic Plectrum] – John Russell
Digital studio recording, London (The Beauchamp Building), January 11, 2001.
Any questions -> support@pro-jazz.com. По всем вопросам пишите -> support@pro-jazz.com
21:27
140
Нет комментариев. Ваш будет первым!