Вы используете незарегистрированную версию компонента "Вкладки"!

Поиск

(Avant-Garde Jazz, Free Improvisation) [CDR] John Russell & Fred Lonberg-Holm Duo - Home - 2012, FLAC (tracks+.cue), lossless

(Avant-Garde Jazz, Free Improvisation) [CDR] John Russell & Fred Lonberg-Holm Duo - Home - 2012, FLAC (tracks+.cue), lossless
Треклист:
John Russell & Fred Lonberg-Holm Duo / Home
Жанр: Avant-Garde Jazz, Free Improvisation
Носитель: CDR
Страна-производитель диска: US
Год издания: 2012
Издатель (лейбл): Peira
Номер по каталогу: PM15
Страна: UK, US
Аудиокодек: FLAC (*.flac)
Тип рипа: tracks+.cue
Битрейт аудио: lossless
Продолжительность: 60:45
Источник (релизер): waffles.fm, tetroid
Наличие сканов в содержимом раздачи:
Треклист:
1 Emsket 27:41
2 Shaela 4:19
3 Moorit 13:32
4 Mioget 15:14
 
Лог создания рипа
Exact Audio Copy V1.0 beta 3 from 29. August 2011
EAC extraction logfile from 6. October 2012, 17:35
John Russell / Fred Lonberg-Holm / Home
Used drive : TSSTcorpCD/DVDW SH-S182M Adapter: 2 ID: 1
Read mode : Secure
Utilize accurate stream : Yes
Defeat audio cache : Yes
Make use of C2 pointers : No
Read offset correction : 6
Overread into Lead-In and Lead-Out : No
Fill up missing offset samples with silence : Yes
Delete leading and trailing silent blocks : No
Null samples used in CRC calculations : Yes
Used interface : Installed external ASPI interface
Gap handling : Appended to previous track
Used output format : User Defined Encoder
Selected bitrate : 1024 kBit/s
Quality : High
Add ID3 tag : No
Command line compressor : C:\Program Files\eac-1.0beta3\FLAC\FLAC.EXE
Additional command line options : -8 -V -T "ARTIST=%artist%" -T "TITLE=%title%" -T "ALBUM=%albumtitle%" -T "DATE=%year%" -T "TRACKNUMBER=%tracknr%" -T "GENRE=%genre%" -T "PERFORMER=%albuminterpret%" -T "COMPOSER=%composer%" %haslyrics%--tag-from-file=LYRICS="%lyricsfile%"%haslyrics% -T "ALBUMARTIST=%albumartist%" -T "ALBUM ARTIST=%albumartist%" -T "DISCNUMBER=%cdnumber%" -T "TOTALDISCS=%totalcds%" -T "TOTALTRACKS=%numtracks%" -T "COMMENT=ivo" %source% -o %dest%
TOC of the extracted CD
Track | Start | Length | Start sector | End sector
---------------------------------------------------------
1 | 0:00.00 | 27:40.63 | 0 | 124562
2 | 27:40.63 | 4:19.24 | 124563 | 144011
3 | 32:00.12 | 13:31.45 | 144012 | 204881
4 | 45:31.57 | 15:13.73 | 204882 | 273429
Track 1
Filename E:\igor\eac\01 - Emsket.wav
Pre-gap length 0:00:02.00
Peak level 100.0 %
Extraction speed 6.5 X
Track quality 100.0 %
Test CRC FE5F2FE9
Copy CRC FE5F2FE9
Track not present in AccurateRip database
Copy OK
Track 2
Filename E:\igor\eac\02 - Mioget.wav
Peak level 100.0 %
Extraction speed 6.3 X
Track quality 99.9 %
Test CRC C13C0979
Copy CRC C13C0979
Track not present in AccurateRip database
Copy OK
Track 3
Filename E:\igor\eac\03 - Moorit.wav
Peak level 100.0 %
Extraction speed 8.3 X
Track quality 100.0 %
Test CRC B16B5B77
Copy CRC B16B5B77
Track not present in AccurateRip database
Copy OK
Track 4
Filename E:\igor\eac\04 - Shaela.wav
Peak level 100.0 %
Extraction speed 8.9 X
Track quality 99.9 %
Test CRC 7E6D2AF4
Copy CRC 7E6D2AF4
Track not present in AccurateRip database
Copy OK
None of the tracks are present in the AccurateRip database
No errors occurred
End of status report
---- CUETools DB Plugin V2.1.3
[CTDB TOCID: r8RNKm6ToS913SLZ9dtJT4583cE-] disk not present in database, Submit result: r8RNKm6ToS913SLZ9dtJT4583cE- has been uploaded
==== Log checksum B307E9376765C1F693ED55C4728D86DFBE334FB0A248918770E5083D05FBA137 ====
 
Содержание индексной карты (.CUE)
REM GENRE "Peira 15"
REM DATE 2012
REM DISCID 2E0E3D04
REM COMMENT "ExactAudioCopy v1.0b3"
PERFORMER "John Russell / Fred Lonberg-Holm"
TITLE "Home"
FILE "01 - Emsket.wav" WAVE
TRACK 01 AUDIO
TITLE "Emsket"
PERFORMER "John Russell / Fred Lonberg-Holm"
INDEX 01 00:00:00
FILE "02 - Mioget.wav" WAVE
TRACK 02 AUDIO
TITLE "Mioget"
PERFORMER "John Russell / Fred Lonberg-Holm"
INDEX 01 00:00:00
FILE "03 - Moorit.wav" WAVE
TRACK 03 AUDIO
TITLE "Moorit"
PERFORMER "John Russell / Fred Lonberg-Holm"
INDEX 01 00:00:00
FILE "04 - Shaela.wav" WAVE
TRACK 04 AUDIO
TITLE "Shaela"
PERFORMER "John Russell / Fred Lonberg-Holm"
INDEX 01 00:00:00
 
Спектры
 
Лог проверки качества
d:\>d:\aucdtect -d/-m0 d:\zzz\*.wav
auCDtect: CD records authenticity detector, version 0.8.2
Copyright (c) 2004 Oleg Berngardt. All rights reserved.
Copyright (c) 2004 Alexander Djourik. All rights reserved.
------------------------------------------------------------
Processing file: [01. Emsket.wav]
------------------------------------------------------------
Could not qualify the source of this track.
------------------------------------------------------------
Processing file: [02. Mioget.wav]
------------------------------------------------------------
This track looks like MPEG with probability 80%
------------------------------------------------------------
Processing file: [03. Moorit.wav]
------------------------------------------------------------
This track looks like CDDA with probability 43%
------------------------------------------------------------
Processing file: [04. Shaela.wav]
------------------------------------------------------------
Could not qualify the source of this track.
------------------------------------------------------------
Final Conclusion:
------------------------------------------------------------
These tracks looks like MPEGs with probability 84%
CDr limited edition of 100 copies.
Доп. информация:
 
Peira Review
With two consistant instigators one would expect a deep exploration of their instrument's ability for tone and timbre. Challenging viewpoints, positing new values, being a question mark. This release does not fail to deliver, in spades.
 
Состав
Cello, Recorded By – Fred Lonberg-Holm
Guitar, Recorded By – John Russell
Any questions -> support@pro-jazz.com. По всем вопросам пишите -> support@pro-jazz.com
21:26
138
Нет комментариев. Ваш будет первым!