Вы используете незарегистрированную версию компонента "Вкладки"!

Поиск

(Avant-Garde Jazz, Free Improvisation) [CD] Olaf Rupp, Matthias Muller, Rudi Fischerlehner - Tingtingk - 2012, FLAC (tracks+.cue), lossless

(Avant-Garde Jazz, Free Improvisation) [CD] Olaf Rupp, Matthias Muller, Rudi Fischerlehner - Tingtingk - 2012, FLAC (tracks+.cue), lossless
Треклист:
Olaf Rupp, Matthias Muller, Rudi Fischerlehner / Tingtingk
Жанр: Avant-Garde Jazz, Free Improvisation
Носитель: CD
Страна-производитель диска: Germany
Год издания: 2012
Издатель (лейбл): gligg Records
Номер по каталогу: 017
Страна: Germany
Аудиокодек: FLAC (*.flac)
Тип рипа: tracks+.cue
Битрейт аудио: lossless
Продолжительность: 49:27
Источник (релизер): waffles.fm, tetroid
Наличие сканов в содержимом раздачи:
Треклист:
1 Melum
2 Ruru
3 Meknais
4 Bikbus
5 Tingtingk
 
Лог создания рипа
X Lossless Decoder version 20130720 (144.0)
XLD extraction logfile from 2013-08-14 01:40:02 +0400
Olaf Rupp, Matthias MГјller, Rudi Fischerlehner / Tingtingk
Used drive : HL-DT-ST DVDRW GX30N (revision RP09)
Media type : Pressed CD
Ripper mode : XLD Secure Ripper
Disable audio cache : OK for the drive with a cache less than 1375KiB
Make use of C2 pointers : NO
Read offset correction : 6
Max retry count : 100
Gap status : Analyzed, Appended (except HTOA)
TOC of the extracted CD
Track | Start | Length | Start sector | End sector
---------------------------------------------------------
1 | 00:00:00 | 09:34:47 | 0 | 43096
2 | 09:34:47 | 09:51:00 | 43097 | 87421
3 | 19:25:47 | 07:02:54 | 87422 | 119125
4 | 26:28:26 | 07:24:46 | 119126 | 152471
5 | 33:52:72 | 15:34:50 | 152472 | 222571
AccurateRip Summary
Disc not found in AccurateRip DB.
All Tracks
Album gain : -2.87 dB
Peak : 0.932434
Statistics
Read error : 0
Jitter error (maybe fixed) : 0
Retry sector count : 0
Damaged sector count : 0
Track 01
Filename : /Users/anch/Music/FLAC/Olaf Rupp, Matthias Muller, Rudi Fischerlehner - 2011 - Tingtingk [MP3 320]/01 - Melum.mp3
/Users/anch/Music/FLAC/Olaf Rupp, Matthias Muller, Rudi Fischerlehner - 2011 - Tingtingk [MP3 V0]/01 - Melum.mp3
/Users/anch/Music/FLAC/Olaf Rupp, Matthias Muller, Rudi Fischerlehner - 2011 - Tingtingk [FLAC]/01 - Melum.flac
Pre-gap length : 00:02:00
Track gain : -3.27 dB
Peak : 0.900452
CRC32 hash (test run) : BF0B4E57
CRC32 hash : BF0B4E57
CRC32 hash (skip zero) : 63425F91
AccurateRip v1 signature : 03DB71D2
AccurateRip v2 signature : 12158F18
->Track not present in AccurateRip database.
Statistics
Read error : 0
Jitter error (maybe fixed) : 0
Retry sector count : 0
Damaged sector count : 0
Track 02
Filename : /Users/anch/Music/FLAC/Olaf Rupp, Matthias Muller, Rudi Fischerlehner - 2011 - Tingtingk [MP3 320]/02 - Ruru.mp3
/Users/anch/Music/FLAC/Olaf Rupp, Matthias Muller, Rudi Fischerlehner - 2011 - Tingtingk [MP3 V0]/02 - Ruru.mp3
/Users/anch/Music/FLAC/Olaf Rupp, Matthias Muller, Rudi Fischerlehner - 2011 - Tingtingk [FLAC]/02 - Ruru.flac
Track gain : 1.35 dB
Peak : 0.752502
CRC32 hash (test run) : 0A71CE7F
CRC32 hash : 0A71CE7F
CRC32 hash (skip zero) : AC683582
AccurateRip v1 signature : FF9A8458
AccurateRip v2 signature : 0B8F803E
->Track not present in AccurateRip database.
Statistics
Read error : 0
Jitter error (maybe fixed) : 0
Retry sector count : 0
Damaged sector count : 0
Track 03
Filename : /Users/anch/Music/FLAC/Olaf Rupp, Matthias Muller, Rudi Fischerlehner - 2011 - Tingtingk [MP3 320]/03 - Meknais.mp3
/Users/anch/Music/FLAC/Olaf Rupp, Matthias Muller, Rudi Fischerlehner - 2011 - Tingtingk [MP3 V0]/03 - Meknais.mp3
/Users/anch/Music/FLAC/Olaf Rupp, Matthias Muller, Rudi Fischerlehner - 2011 - Tingtingk [FLAC]/03 - Meknais.flac
Track gain : -2.65 dB
Peak : 0.932434
CRC32 hash (test run) : CBB8836E
CRC32 hash : CBB8836E
CRC32 hash (skip zero) : 17CE8510
AccurateRip v1 signature : 9E0E3FAA
AccurateRip v2 signature : B2818E42
->Track not present in AccurateRip database.
Statistics
Read error : 0
Jitter error (maybe fixed) : 0
Retry sector count : 0
Damaged sector count : 0
Track 04
Filename : /Users/anch/Music/FLAC/Olaf Rupp, Matthias Muller, Rudi Fischerlehner - 2011 - Tingtingk [MP3 320]/04 - Bikbus.mp3
/Users/anch/Music/FLAC/Olaf Rupp, Matthias Muller, Rudi Fischerlehner - 2011 - Tingtingk [MP3 V0]/04 - Bikbus.mp3
/Users/anch/Music/FLAC/Olaf Rupp, Matthias Muller, Rudi Fischerlehner - 2011 - Tingtingk [FLAC]/04 - Bikbus.flac
Track gain : -2.82 dB
Peak : 0.909332
CRC32 hash (test run) : 3AE2472C
CRC32 hash : 3AE2472C
CRC32 hash (skip zero) : C702E9E4
AccurateRip v1 signature : 16E42920
AccurateRip v2 signature : 42A9E879
->Track not present in AccurateRip database.
Statistics
Read error : 0
Jitter error (maybe fixed) : 0
Retry sector count : 0
Damaged sector count : 0
Track 05
Filename : /Users/anch/Music/FLAC/Olaf Rupp, Matthias Muller, Rudi Fischerlehner - 2011 - Tingtingk [MP3 320]/05 - Tingtingk.mp3
/Users/anch/Music/FLAC/Olaf Rupp, Matthias Muller, Rudi Fischerlehner - 2011 - Tingtingk [MP3 V0]/05 - Tingtingk.mp3
/Users/anch/Music/FLAC/Olaf Rupp, Matthias Muller, Rudi Fischerlehner - 2011 - Tingtingk [FLAC]/05 - Tingtingk.flac
Track gain : -3.11 dB
Peak : 0.910614
CRC32 hash (test run) : EE8FBD6A
CRC32 hash : EE8FBD6A
CRC32 hash (skip zero) : BF32488C
AccurateRip v1 signature : 307B13ED
AccurateRip v2 signature : 5A876CC8
->Track not present in AccurateRip database.
Statistics
Read error : 0
Jitter error (maybe fixed) : 0
Retry sector count : 0
Damaged sector count : 0
No errors occurred
End of status report
 
Содержание индексной карты (.CUE)
TITLE "Tingtingk"
PERFORMER "Olaf Rupp, Matthias MГјller, Rudi Fischerlehner"
CATALOG 4250561300170
REM GENRE "Free Jazz"
REM DATE "2011"
REM DISCID 3B0B9705
REM REPLAYGAIN_ALBUM_GAIN -2.87 dB
REM REPLAYGAIN_ALBUM_PEAK 0.932434
FILE "01 - Melum.flac" WAVE
TRACK 01 AUDIO
TITLE "Melum"
PERFORMER "Olaf Rupp, Matthias MГјller, Rudi Fischerlehner"
SONGWRITER "Olaf Rupp, Matthias MГјller, Rudi Fischerlehner"
ISRC DEOG31101701
REM REPLAYGAIN_TRACK_GAIN -3.27 dB
REM REPLAYGAIN_TRACK_PEAK 0.900452
INDEX 01 00:00:00
FILE "02 - Ruru.flac" WAVE
TRACK 02 AUDIO
TITLE "Ruru"
PERFORMER "Olaf Rupp, Matthias MГјller, Rudi Fischerlehner"
SONGWRITER "Olaf Rupp, Matthias MГјller, Rudi Fischerlehner"
ISRC DEOG31101702
REM REPLAYGAIN_TRACK_GAIN 1.35 dB
REM REPLAYGAIN_TRACK_PEAK 0.752502
INDEX 01 00:00:00
FILE "03 - Meknais.flac" WAVE
TRACK 03 AUDIO
TITLE "Meknais"
PERFORMER "Olaf Rupp, Matthias MГјller, Rudi Fischerlehner"
SONGWRITER "Olaf Rupp, Matthias MГјller, Rudi Fischerlehner"
ISRC DEOG31101703
REM REPLAYGAIN_TRACK_GAIN -2.65 dB
REM REPLAYGAIN_TRACK_PEAK 0.932434
INDEX 01 00:00:00
FILE "04 - Bikbus.flac" WAVE
TRACK 04 AUDIO
TITLE "Bikbus"
PERFORMER "Olaf Rupp, Matthias MГјller, Rudi Fischerlehner"
SONGWRITER "Olaf Rupp, Matthias MГјller, Rudi Fischerlehner"
ISRC DEOG31101704
REM REPLAYGAIN_TRACK_GAIN -2.82 dB
REM REPLAYGAIN_TRACK_PEAK 0.909332
INDEX 01 00:00:00
FILE "05 - Tingtingk.flac" WAVE
TRACK 05 AUDIO
TITLE "Tingtingk"
PERFORMER "Olaf Rupp, Matthias MГјller, Rudi Fischerlehner"
SONGWRITER "Olaf Rupp, Matthias MГјller, Rudi Fischerlehner"
ISRC DEOG31101705
REM REPLAYGAIN_TRACK_GAIN -3.11 dB
REM REPLAYGAIN_TRACK_PEAK 0.910614
INDEX 01 00:00:00
 
Лог проверки качества
d:\>d:\aucdtect -d/-m0 d:\zzz\*.wav
auCDtect: CD records authenticity detector, version 0.8.2
Copyright (c) 2004 Oleg Berngardt. All rights reserved.
Copyright (c) 2004 Alexander Djourik. All rights reserved.
------------------------------------------------------------
Processing file: [01. Melum.wav]
------------------------------------------------------------
This track looks like CDDA with probability 100%
------------------------------------------------------------
Processing file: [02. Ruru.wav]
------------------------------------------------------------
This track looks like CDDA with probability 100%
------------------------------------------------------------
Processing file: [03. Meknais.wav]
------------------------------------------------------------
This track looks like CDDA with probability 100%
------------------------------------------------------------
Processing file: [04. Bikbus.wav]
------------------------------------------------------------
This track looks like CDDA with probability 100%
------------------------------------------------------------
Processing file: [05. Tingtingk.wav]
------------------------------------------------------------
This track looks like CDDA with probability 100%
------------------------------------------------------------
Final Conclusion:
------------------------------------------------------------
These tracks looks like CDDA with probability 100%
Доп. информация:
 
Album Review
For Central European ears, the titles of their pieces consist of strange sounding words like bikbus or tingtingk. Olaf Rupp explains they come from Pidgin English from Papua New Guinea. Bikbus, for instance, means big jungle - literally "big bush". "The idea came to us because when I was mixing Tingtingk I kept seeing the image of a dense jungle", the guitarist goes on to explain.
Drummer Rudi Fischerlehner adds: "We found the titles for our new CD on a wooden floor in Prague. The words PRE, PEI, SIN, and TAM were printed on the floor; they also exist in Pidgin English and happen to have nice meanings."
The way they find titles for their numbers seems to be just as associative and unplanned as the way they make music. They create spaces between the sounds, in the combination of hearing and being heard, acting and reacting.
"You can hear what´s coming from the individual musicians, what patterns are being created," says Rudi Fischerlehner. "Someone might add a counterpoint, pick up a theme, or join in, and of course as a band you develop a sense for collective sounds and dynamic tension."
And in fact the trio´s music sounds like something in the process of creation, something organic, jungle-like, something that grows according to an inner logic. You won´t find any heady considerations about what will happen next. This is because, as the drummer puts it, "It´s not really a question of deciding what comes next, but more like a development. A color becomes predominant and then suddenly everything spills into a new direction, or a sequence abruptly ends and suddenly something new is there. I can´t say for sure whether it´s purely intuition, coincidence, group dynamics, fleeting quantum events, or all of the above."
Doris Schumacher, "Jazzmag", 34th International Jazzfestival Saalfelden 2013
 
Состав
Drums – Rudi Fischerlehner
Electric Guitar – Olaf Rupp
Trombone – Matthias Muller
Recorded on July 5th, 2011
По всем вопросам пишите личное сообщение пользователю M0p94ok.
21:28
132
Нет комментариев. Ваш будет первым!