Вы используете незарегистрированную версию компонента "Вкладки"!

Поиск

(Avant-Garde Jazz, Free Improvisation, Electroacoustic, FMR) [CD] Circuit (Gary Smith, Pat Thomas, Trevor Taylor, Roberto Filoseta) - Kitaoka - 2007, FLAC (tracks+.cue), lossless

(Avant-Garde Jazz, Free Improvisation, Electroacoustic, FMR) [CD] Circuit (Gary Smith, Pat Thomas, Trevor Taylor, Roberto Filoseta) - Kitaoka - 2007, FLAC (tracks+.cue), lossless
Треклист:
Circuit / Kitaoka
Жанр: Avant-Garde Jazz, Free Improvisation, Electroacoustic, FMR
Носитель: CD
Страна-производитель диска (релиза): UK
Год издания: 2007
Издатель (лейбл): FMR Records
Номер по каталогу: FMRCD218-0207
Страна исполнителя (группы): UK
Аудиокодек: FLAC (*.flac)
Тип рипа: tracks+.cue
Битрейт аудио: lossless
Продолжительность: 76:44
Источник (релизер): свой фирменный диск
Наличие сканов в содержимом раздачи:
Треклист:
1. Kitaoka 1 12:36
2. Kitaoka 2 9:16
3. Kitaoka 3 8:16
4. Kitaoka 4 19:14
5. Kitaoka 5 16:34
6. Kitaoka 6 10:48
 
Лог создания рипа
Exact Audio Copy V1.0 beta 3 from 29. August 2011
EAC extraction logfile from 16. November 2014, 16:12
Circuit / Kitaoka
Used drive : PIONEER DVD-RW DVR-115D Adapter: 0 ID: 0
Read mode : Secure
Utilize accurate stream : Yes
Defeat audio cache : Yes
Make use of C2 pointers : No
Read offset correction : 48
Overread into Lead-In and Lead-Out : No
Fill up missing offset samples with silence : Yes
Delete leading and trailing silent blocks : No
Null samples used in CRC calculations : Yes
Used interface : Installed external ASPI interface
Gap handling : Appended to previous track
Used output format : User Defined Encoder
Selected bitrate : 768 kBit/s
Quality : High
Add ID3 tag : No
Command line compressor : C:\Program Files\Exact Audio Copy\Flac\flac.exe
Additional command line options : -6 -V -T "ARTIST=%artist%" -T "TITLE=%title%" -T "ALBUM=%albumtitle%" -T "DATE=%year%" -T "TRACKNUMBER=%tracknr%" -T "GENRE=%genre%" -T "COMMENT=%comment%" -T "BAND=%albuminterpret%" -T "COMPOSER=%composer%" %haslyrics%--tag-from-file=LYRICS="%lyricsfile%"%haslyrics% -T "DISCNUMBER=%cdnumber%" -T "TOTALDISCS=%totalcds%" -T "TOTALTRACKS=%numtracks%" %hascover%--picture="%coverfile%"%hascover% %source% -o %dest%
TOC of the extracted CD
Track | Start | Length | Start sector | End sector
---------------------------------------------------------
1 | 0:00.00 | 12:36.00 | 0 | 56699
2 | 12:36.00 | 9:16.00 | 56700 | 98399
3 | 21:52.00 | 8:16.00 | 98400 | 135599
4 | 30:08.00 | 19:13.74 | 135600 | 222148
5 | 49:21.74 | 16:34.33 | 222149 | 296731
6 | 65:56.32 | 10:47.65 | 296732 | 345321
Track 1
Filename D:\zzz\01 - Kitaoka 1.wav
Pre-gap length 0:00:02.00
Peak level 100.0 %
Extraction speed 5.6 X
Track quality 100.0 %
Test CRC 58AA9A66
Copy CRC 58AA9A66
Track not present in AccurateRip database
Copy OK
Track 2
Filename D:\zzz\02 - Kitaoka 2.wav
Pre-gap length 0:00:02.00
Peak level 100.0 %
Extraction speed 5.9 X
Track quality 99.9 %
Test CRC 94F021D8
Copy CRC 94F021D8
Track not present in AccurateRip database
Copy OK
Track 3
Filename D:\zzz\03 - Kitaoka 3.wav
Pre-gap length 0:00:02.00
Peak level 100.0 %
Extraction speed 6.8 X
Track quality 99.9 %
Test CRC 4709F29D
Copy CRC 4709F29D
Track not present in AccurateRip database
Copy OK
Track 4
Filename D:\zzz\04 - Kitaoka 4.wav
Pre-gap length 0:00:02.00
Peak level 100.0 %
Extraction speed 8.4 X
Track quality 100.0 %
Test CRC 3C3B7BA5
Copy CRC 3C3B7BA5
Track not present in AccurateRip database
Copy OK
Track 5
Filename D:\zzz\05 - Kitaoka 5.wav
Pre-gap length 0:00:02.00
Peak level 99.0 %
Extraction speed 9.4 X
Track quality 100.0 %
Test CRC BB9366F8
Copy CRC BB9366F8
Track not present in AccurateRip database
Copy OK
Track 6
Filename D:\zzz\06 - Kitaoka 6.wav
Pre-gap length 0:00:02.00
Peak level 97.9 %
Extraction speed 6.0 X
Track quality 99.8 %
Test CRC ED5EA8EE
Copy CRC ED5EA8EE
Track not present in AccurateRip database
Copy OK
None of the tracks are present in the AccurateRip database
No errors occurred
End of status report
==== Log checksum 1AA65F815CA28A16700D2BAB74080F23D6C09D90CA3786C86205183AA15E218C ====
 
Содержание индексной карты (.CUE)
REM GENRE "Electroacoustic Improvisation"
REM DATE 2007
REM DISCID 5611FC06
REM COMMENT "ExactAudioCopy v1.0b3"
PERFORMER "Circuit"
TITLE "Kitaoka"
FILE "01 - Kitaoka 1.wav" WAVE
TRACK 01 AUDIO
TITLE "Kitaoka 1"
PERFORMER "Circuit"
INDEX 01 00:00:00
TRACK 02 AUDIO
TITLE "Kitaoka 2"
PERFORMER "Circuit"
INDEX 00 12:34:00
FILE "02 - Kitaoka 2.wav" WAVE
INDEX 01 00:00:00
TRACK 03 AUDIO
TITLE "Kitaoka 3"
PERFORMER "Circuit"
INDEX 00 09:14:00
FILE "03 - Kitaoka 3.wav" WAVE
INDEX 01 00:00:00
TRACK 04 AUDIO
TITLE "Kitaoka 4"
PERFORMER "Circuit"
INDEX 00 08:14:00
FILE "04 - Kitaoka 4.wav" WAVE
INDEX 01 00:00:00
TRACK 05 AUDIO
TITLE "Kitaoka 5"
PERFORMER "Circuit"
INDEX 00 19:11:74
FILE "05 - Kitaoka 5.wav" WAVE
INDEX 01 00:00:00
TRACK 06 AUDIO
TITLE "Kitaoka 6"
PERFORMER "Circuit"
INDEX 00 16:32:33
FILE "06 - Kitaoka 6.wav" WAVE
INDEX 01 00:00:00
 
Лог проверки качества
d:\>d:\aucdtect -d/-m0 d:\zzz\*.wav
auCDtect: CD records authenticity detector, version 0.8.2
Copyright (c) 2004 Oleg Berngardt. All rights reserved.
Copyright (c) 2004 Alexander Djourik. All rights reserved.
------------------------------------------------------------
Processing file: [01. Kitaoka 1.wav]
------------------------------------------------------------
This track looks like MPEG with probability 95%
------------------------------------------------------------
Processing file: [02. Kitaoka 2.wav]
------------------------------------------------------------
This track looks like MPEG with probability 95%
------------------------------------------------------------
Processing file: [03. Kitaoka 3.wav]
------------------------------------------------------------
This track looks like MPEG with probability 95%
------------------------------------------------------------
Processing file: [04. Kitaoka 4.wav]
------------------------------------------------------------
This track looks like MPEG with probability 95%
------------------------------------------------------------
Processing file: [05. Kitaoka 5.wav]
------------------------------------------------------------
This track looks like MPEG with probability 95%
------------------------------------------------------------
Processing file: [06. Kitaoka 6.wav]
------------------------------------------------------------
This track looks like MPEG with probability 79%
------------------------------------------------------------
Final Conclusion:
------------------------------------------------------------
These tracks looks like MPEGs with probability 99%
Доп. информация:
 
Album Info
This CD is part of a recent series by the electro acoustic group CIRCUIT, a group with largely variable personel.
Like the other CD's this music was recorded at Pheonix Studios London and included the guitarist Gary Smith, with Trevor Taylor on acoustic percussion and electronics, and Pat Thomas keyboards. The group recorded three tracks and then was joined for another three with the addition of pianist Roberto Filoseta who also modifies the acoustic sound using electronics.
The title and cover design are influenced by the Japanese artist and illusionist Akiyoshi Kitaoka.
Cover graphic: Akiyoshi Kitaoka
 
Состав
Gary Smith: guitar & electronics
Pat Thomas: keyboards & electronics
Trevor Taylor: percussion & electronics
Roberto Filoseta: piano & electronics (4,5,6)
По всем вопросам пишите личное сообщение пользователю M0p94ok.
08:09
133
Нет комментариев. Ваш будет первым!