Вы используете незарегистрированную версию компонента "Вкладки"!

Поиск

(Avant-Garde Jazz, Free Improvisation, FMR) [CD] Between The Notes (Matthew Barley, Paul Griffiths, Fraser Trainer, Sam Walton, Pete Whyman) - Extraordinary Improvisations - 2007, FLAC (tracks+.cue), lossless

(Avant-Garde Jazz, Free Improvisation, FMR) [CD] Between The Notes (Matthew Barley, Paul Griffiths, Fraser Trainer, Sam Walton, Pete Whyman) - Extraordinary Improvisations - 2007, FLAC (tracks+.cue), lossless
Треклист:
Between The Notes / Extraordinary Improvisations
Жанр: Avant-Garde Jazz, Free Improvisation, FMR
Носитель: CD
Страна-производитель диска (релиза): UK
Год издания: 2007
Издатель (лейбл): FMR Records
Номер по каталогу: FMRCD234-0707
Страна исполнителя (группы): UK
Аудиокодек: FLAC (*.flac)
Тип рипа: tracks+.cue
Битрейт аудио: lossless
Продолжительность: 62:56
Источник (релизер): свой фирменный диск
Наличие сканов в содержимом раздачи:
Треклист:
1. Water
2. Two Characters
3. Connection, Intersection, Rejection, Introspection
4. Chord Sequence
5. Bi Polar
6. Scatterbrain
7. Torchnote
8. Almscliff Crag
9. Clarinet Solo
10. Mindwander
11. Intransigent
12. Lake Garda
 
Лог создания рипа
Exact Audio Copy V1.0 beta 3 from 29. August 2011
EAC extraction logfile from 17. November 2014, 21:45
Between The Notes / Extraordinary Improvisations
Used drive : TSSTcorpCDDVDW SH-222AB Adapter: 1 ID: 0
Read mode : Secure
Utilize accurate stream : Yes
Defeat audio cache : Yes
Make use of C2 pointers : No
Read offset correction : 6
Overread into Lead-In and Lead-Out : No
Fill up missing offset samples with silence : Yes
Delete leading and trailing silent blocks : No
Null samples used in CRC calculations : Yes
Used interface : Installed external ASPI interface
Gap handling : Appended to previous track
Used output format : User Defined Encoder
Selected bitrate : 768 kBit/s
Quality : High
Add ID3 tag : No
Command line compressor : C:\Program Files\Exact Audio Copy\Flac\flac.exe
Additional command line options : -6 -V -T "ARTIST=%artist%" -T "TITLE=%title%" -T "ALBUM=%albumtitle%" -T "DATE=%year%" -T "TRACKNUMBER=%tracknr%" -T "GENRE=%genre%" -T "COMMENT=%comment%" -T "BAND=%albuminterpret%" -T "COMPOSER=%composer%" %haslyrics%--tag-from-file=LYRICS="%lyricsfile%"%haslyrics% -T "DISCNUMBER=%cdnumber%" -T "TOTALDISCS=%totalcds%" -T "TOTALTRACKS=%numtracks%" %hascover%--picture="%coverfile%"%hascover% %source% -o %dest%
TOC of the extracted CD
Track | Start | Length | Start sector | End sector
---------------------------------------------------------
1 | 0:00.00 | 6:17.26 | 0 | 28300
2 | 6:17.26 | 2:56.20 | 28301 | 41520
3 | 9:13.46 | 10:15.51 | 41521 | 87696
4 | 19:29.22 | 4:39.00 | 87697 | 108621
5 | 24:08.22 | 3:42.62 | 108622 | 125333
6 | 27:51.09 | 5:19.46 | 125334 | 149304
7 | 33:10.55 | 5:53.29 | 149305 | 175808
8 | 39:04.09 | 3:46.01 | 175809 | 192759
9 | 42:50.10 | 3:54.52 | 192760 | 210361
10 | 46:44.62 | 10:22.60 | 210362 | 257071
11 | 57:07.47 | 2:14.33 | 257072 | 267154
12 | 59:22.05 | 3:33.70 | 267155 | 283199
Track 1
Filename D:\zzz\01 - Water.wav
Pre-gap length 0:00:02.00
Peak level 96.1 %
Extraction speed 2.0 X
Track quality 100.0 %
Test CRC 8C5BB528
Copy CRC 8C5BB528
Track not present in AccurateRip database
Copy OK
Track 2
Filename D:\zzz\02 - Two Characters.wav
Pre-gap length 0:00:05.46
Peak level 100.0 %
Extraction speed 1.7 X
Track quality 99.9 %
Test CRC EA0D9153
Copy CRC EA0D9153
Track not present in AccurateRip database
Copy OK
Track 3
Filename D:\zzz\03 - Connection, Intersection, Rejection, Introspection.wav
Pre-gap length 0:00:03.56
Peak level 100.0 %
Extraction speed 2.6 X
Track quality 100.0 %
Test CRC 9EF4B694
Copy CRC 9EF4B694
Track not present in AccurateRip database
Copy OK
Track 4
Filename D:\zzz\04 - Chord Sequence.wav
Pre-gap length 0:00:03.23
Peak level 59.3 %
Extraction speed 2.7 X
Track quality 100.0 %
Test CRC 410018E7
Copy CRC 410018E7
Track not present in AccurateRip database
Copy OK
Track 5
Filename D:\zzz\05 - Bi Polar.wav
Pre-gap length 0:00:03.50
Peak level 73.6 %
Extraction speed 2.7 X
Track quality 100.0 %
Test CRC 2A7996C0
Copy CRC 2A7996C0
Track not present in AccurateRip database
Copy OK
Track 6
Filename D:\zzz\06 - Scatterbrain.wav
Pre-gap length 0:00:03.37
Peak level 100.0 %
Extraction speed 3.0 X
Track quality 100.0 %
Test CRC FCC0B665
Copy CRC FCC0B665
Track not present in AccurateRip database
Copy OK
Track 7
Filename D:\zzz\07 - Torchnote.wav
Pre-gap length 0:00:02.53
Peak level 98.6 %
Extraction speed 3.2 X
Track quality 100.0 %
Test CRC 87686B5D
Copy CRC 87686B5D
Track not present in AccurateRip database
Copy OK
Track 8
Filename D:\zzz\08 - Almscliff Crag.wav
Pre-gap length 0:00:02.31
Peak level 15.8 %
Extraction speed 3.2 X
Track quality 100.0 %
Test CRC 210A9E5B
Copy CRC 210A9E5B
Track not present in AccurateRip database
Copy OK
Track 9
Filename D:\zzz\09 - Clarinet Solo.wav
Pre-gap length 0:00:02.55
Peak level 79.1 %
Extraction speed 2.9 X
Track quality 99.9 %
Test CRC BFDC465D
Copy CRC BFDC465D
Track not present in AccurateRip database
Copy OK
Track 10
Filename D:\zzz\10 - Mindwander.wav
Pre-gap length 0:00:03.10
Peak level 100.0 %
Extraction speed 3.6 X
Track quality 99.9 %
Test CRC FB8F7926
Copy CRC FB8F7926
Track not present in AccurateRip database
Copy OK
Track 11
Filename D:\zzz\11 - Intransigent.wav
Pre-gap length 0:00:02.60
Peak level 100.0 %
Extraction speed 2.7 X
Track quality 99.9 %
Test CRC F02F1B96
Copy CRC F02F1B96
Track not present in AccurateRip database
Copy OK
Track 12
Filename D:\zzz\12 - Lake Garda.wav
Pre-gap length 0:00:01.42
Peak level 60.0 %
Extraction speed 3.6 X
Track quality 100.0 %
Test CRC C936237F
Copy CRC C936237F
Track not present in AccurateRip database
Copy OK
None of the tracks are present in the AccurateRip database
No errors occurred
End of status report
==== Log checksum FAAC7237574197A4AEB89654DC56AFA7DD2464C911E0B0546B71779BA5C26EC5 ====
 
Содержание индексной карты (.CUE)
REM GENRE "Free Improvisation"
REM DATE 2007
REM DISCID B10EC00C
REM COMMENT "ExactAudioCopy v1.0b3"
PERFORMER "Between The Notes"
TITLE "Extraordinary Improvisations"
FILE "01 - Water.wav" WAVE
TRACK 01 AUDIO
TITLE "Water"
PERFORMER "Between The Notes"
INDEX 01 00:00:00
TRACK 02 AUDIO
TITLE "Two Characters"
PERFORMER "Between The Notes"
INDEX 00 06:11:55
FILE "02 - Two Characters.wav" WAVE
INDEX 01 00:00:00
TRACK 03 AUDIO
TITLE "Connection, Intersection, Rejection, Introspection"
PERFORMER "Between The Notes"
INDEX 00 02:52:39
FILE "03 - Connection, Intersection, Rejection, Introspection.wav" WAVE
INDEX 01 00:00:00
TRACK 04 AUDIO
TITLE "Chord Sequence"
PERFORMER "Between The Notes"
INDEX 00 10:12:28
FILE "04 - Chord Sequence.wav" WAVE
INDEX 01 00:00:00
TRACK 05 AUDIO
TITLE "Bi Polar"
PERFORMER "Between The Notes"
INDEX 00 04:35:25
FILE "05 - Bi Polar.wav" WAVE
INDEX 01 00:00:00
TRACK 06 AUDIO
TITLE "Scatterbrain"
PERFORMER "Between The Notes"
INDEX 00 03:39:25
FILE "06 - Scatterbrain.wav" WAVE
INDEX 01 00:00:00
TRACK 07 AUDIO
TITLE "Torchnote"
PERFORMER "Between The Notes"
INDEX 00 05:16:68
FILE "07 - Torchnote.wav" WAVE
INDEX 01 00:00:00
TRACK 08 AUDIO
TITLE "Almscliff Crag"
PERFORMER "Between The Notes"
INDEX 00 05:50:73
FILE "08 - Almscliff Crag.wav" WAVE
INDEX 01 00:00:00
TRACK 09 AUDIO
TITLE "Clarinet Solo"
PERFORMER "Between The Notes"
INDEX 00 03:43:21
FILE "09 - Clarinet Solo.wav" WAVE
INDEX 01 00:00:00
TRACK 10 AUDIO
TITLE "Mindwander"
PERFORMER "Between The Notes"
INDEX 00 03:51:42
FILE "10 - Mindwander.wav" WAVE
INDEX 01 00:00:00
TRACK 11 AUDIO
TITLE "Intransigent"
PERFORMER "Between The Notes"
INDEX 00 10:20:00
FILE "11 - Intransigent.wav" WAVE
INDEX 01 00:00:00
TRACK 12 AUDIO
TITLE "Lake Garda"
PERFORMER "Between The Notes"
INDEX 00 02:12:66
FILE "12 - Lake Garda.wav" WAVE
INDEX 01 00:00:00
 
Лог проверки качества
d:\>d:\aucdtect -d/-m0 d:\zzz\*.wav
auCDtect: CD records authenticity detector, version 0.8.2
Copyright (c) 2004 Oleg Berngardt. All rights reserved.
Copyright (c) 2004 Alexander Djourik. All rights reserved.
------------------------------------------------------------
Processing file: [01. Water.wav]
------------------------------------------------------------
This track looks like CDDA with probability 100%
------------------------------------------------------------
Processing file: [02. Two Characters.wav]
------------------------------------------------------------
This track looks like CDDA with probability 100%
------------------------------------------------------------
Processing file: [03. Connection, Intersection, Rejection, Introspection.wav]
------------------------------------------------------------
This track looks like CDDA with probability 100%
------------------------------------------------------------
Processing file: [04. Chord Sequence.wav]
------------------------------------------------------------
This track looks like CDDA with probability 100%
------------------------------------------------------------
Processing file: [05. Bi Polar.wav]
------------------------------------------------------------
This track looks like CDDA with probability 100%
------------------------------------------------------------
Processing file: [06. Scatterbrain.wav]
------------------------------------------------------------
This track looks like CDDA with probability 100%
------------------------------------------------------------
Processing file: [07. Torchnote.wav]
------------------------------------------------------------
This track looks like CDDA with probability 100%
------------------------------------------------------------
Processing file: [08. Almscliff Crag.wav]
------------------------------------------------------------
This track looks like CDDA with probability 100%
------------------------------------------------------------
Processing file: [09. Clarinet Solo.wav]
------------------------------------------------------------
This track looks like CDDA with probability 100%
------------------------------------------------------------
Processing file: [10. Mindwander.wav]
------------------------------------------------------------
This track looks like CDDA with probability 100%
------------------------------------------------------------
Processing file: [11. Intransigent.wav]
------------------------------------------------------------
This track looks like CDDA with probability 100%
------------------------------------------------------------
Processing file: [12. Lake Garda.wav]
------------------------------------------------------------
This track looks like CDDA with probability 100%
------------------------------------------------------------
Final Conclusion:
------------------------------------------------------------
These tracks looks like CDDA with probability 100%
Доп. информация:
 
Album Info
This CD was made after a competition ran in the BBC Music Magazine to find ideas on which to base improvisations - the idea was to explore how music can come from non-musical sources like concepts, words, pictures and so on. We asked for entries in 9 categories and we chose our favourite one of each, then recorded two or three versions of each, then picked the best one to be on the disc. There was no editing at all.
 
Состав
Matthew Barley: cello, director
Paul Griffiths: guitar
Fraser Trainer: piano, keyboards
Sam Walton: percussion
Peter Whyman: clarinet & saxophone
По всем вопросам пишите личное сообщение пользователю M0p94ok.
08:10
143
Нет комментариев. Ваш будет первым!