Вы используете незарегистрированную версию компонента "Вкладки"!

Поиск

(Avant-Garde Jazz, Free Improvisation, Electroacoustic, FMR) [CD] Powerfield (Gary Smith, Joe Gallivan, Pat Thomas) - Field Recordings - 2006, FLAC (tracks+.cue), lossless

(Avant-Garde Jazz, Free Improvisation, Electroacoustic, FMR) [CD] Powerfield (Gary Smith, Joe Gallivan, Pat Thomas) - Field Recordings - 2006, FLAC (tracks+.cue), lossless
Треклист:
Powerfield / Field Recordings
Жанр: Avant-Garde Jazz, Free Improvisation, Electroacoustic, FMR
Носитель: CD
Страна-производитель диска (релиза): UK
Год издания: 2006
Издатель (лейбл): FMR Records
Номер по каталогу: FMRCD199-0206
Страна исполнителя (группы): UK
Аудиокодек: FLAC (*.flac)
Тип рипа: tracks+.cue
Битрейт аудио: lossless
Продолжительность: 45:32
Источник (релизер): свой фирменный диск
Наличие сканов в содержимом раздачи:
Треклист:
1. Scorched
2. Neon Street Drive
3. Field Rec. No. 2
4. View. Street Level. Walk
5. Shifting (Fake) Sand
6. Aerial View (Slow Fly)
7. Field Rec. No. 3
8. Intersections
9. Overcast "Some Rain..."
10. Field Rec. No. 1
11. Ur Heart
 
Лог создания рипа
Exact Audio Copy V1.0 beta 3 from 29. August 2011
EAC extraction logfile from 15. November 2014, 20:19
Powerfield / Field Recordings
Used drive : PIONEER DVD-RW DVR-115D Adapter: 0 ID: 0
Read mode : Secure
Utilize accurate stream : Yes
Defeat audio cache : Yes
Make use of C2 pointers : No
Read offset correction : 48
Overread into Lead-In and Lead-Out : No
Fill up missing offset samples with silence : Yes
Delete leading and trailing silent blocks : No
Null samples used in CRC calculations : Yes
Used interface : Installed external ASPI interface
Gap handling : Appended to previous track
Used output format : User Defined Encoder
Selected bitrate : 768 kBit/s
Quality : High
Add ID3 tag : No
Command line compressor : C:\Program Files\Exact Audio Copy\Flac\flac.exe
Additional command line options : -6 -V -T "ARTIST=%artist%" -T "TITLE=%title%" -T "ALBUM=%albumtitle%" -T "DATE=%year%" -T "TRACKNUMBER=%tracknr%" -T "GENRE=%genre%" -T "COMMENT=%comment%" -T "BAND=%albuminterpret%" -T "COMPOSER=%composer%" %haslyrics%--tag-from-file=LYRICS="%lyricsfile%"%haslyrics% -T "DISCNUMBER=%cdnumber%" -T "TOTALDISCS=%totalcds%" -T "TOTALTRACKS=%numtracks%" %hascover%--picture="%coverfile%"%hascover% %source% -o %dest%
TOC of the extracted CD
Track | Start | Length | Start sector | End sector
---------------------------------------------------------
1 | 0:00.00 | 4:02.07 | 0 | 18156
2 | 4:02.07 | 1:35.40 | 18157 | 25321
3 | 5:37.47 | 3:59.60 | 25322 | 43306
4 | 9:37.32 | 3:25.02 | 43307 | 58683
5 | 13:02.34 | 5:02.41 | 58684 | 81374
6 | 18:05.00 | 3:36.22 | 81375 | 97596
7 | 21:41.22 | 4:37.15 | 97597 | 118386
8 | 26:18.37 | 5:20.31 | 118387 | 142417
9 | 31:38.68 | 2:24.10 | 142418 | 153227
10 | 34:03.03 | 5:26.06 | 153228 | 177683
11 | 39:29.09 | 6:02.63 | 177684 | 204896
Track 1
Filename D:\zzz\01 - Scorched.wav
Pre-gap length 0:00:02.00
Peak level 99.8 %
Extraction speed 4.3 X
Track quality 100.0 %
Test CRC F3624981
Copy CRC F3624981
Track not present in AccurateRip database
Copy OK
Track 2
Filename D:\zzz\02 - Neon Street Drive.wav
Pre-gap length 0:00:03.24
Peak level 89.1 %
Extraction speed 3.8 X
Track quality 100.0 %
Test CRC 46562E88
Copy CRC 46562E88
Track not present in AccurateRip database
Copy OK
Track 3
Filename D:\zzz\03 - Field Rec. No. 2.wav
Pre-gap length 0:00:03.29
Peak level 94.5 %
Extraction speed 4.9 X
Track quality 100.0 %
Test CRC 8B800A6F
Copy CRC 8B800A6F
Track not present in AccurateRip database
Copy OK
Track 4
Filename D:\zzz\04 - View. Street Level. Walk.wav
Pre-gap length 0:00:04.42
Peak level 94.3 %
Extraction speed 5.2 X
Track quality 100.0 %
Test CRC 3C6CE1E7
Copy CRC 3C6CE1E7
Track not present in AccurateRip database
Copy OK
Track 5
Filename D:\zzz\05 - Shifting (Fake) Sand.wav
Pre-gap length 0:00:05.18
Peak level 99.7 %
Extraction speed 5.8 X
Track quality 100.0 %
Test CRC D76C4C73
Copy CRC D76C4C73
Track not present in AccurateRip database
Copy OK
Track 6
Filename D:\zzz\06 - Aerial View (Slow Fly).wav
Pre-gap length 0:00:02.10
Peak level 99.1 %
Extraction speed 5.9 X
Track quality 100.0 %
Test CRC E72A5AB5
Copy CRC E72A5AB5
Track not present in AccurateRip database
Copy OK
Track 7
Filename D:\zzz\07 - Field Rec. No. 3.wav
Pre-gap length 0:00:05.29
Peak level 99.8 %
Extraction speed 5.7 X
Track quality 99.9 %
Test CRC BEEE1D92
Copy CRC BEEE1D92
Track not present in AccurateRip database
Copy OK
Track 8
Filename D:\zzz\08 - Intersections.wav
Pre-gap length 0:00:03.02
Peak level 99.8 %
Extraction speed 6.8 X
Track quality 100.0 %
Test CRC 6ED2B86F
Copy CRC 6ED2B86F
Track not present in AccurateRip database
Copy OK
Track 9
Filename D:\zzz\09 - Overcast ''Some Rain...''.wav
Pre-gap length 0:00:05.05
Peak level 99.7 %
Extraction speed 6.3 X
Track quality 100.0 %
Test CRC EA47D661
Copy CRC EA47D661
Track not present in AccurateRip database
Copy OK
Track 10
Filename D:\zzz\10 - Field Rec. No. 1.wav
Pre-gap length 0:00:03.46
Peak level 99.7 %
Extraction speed 7.3 X
Track quality 100.0 %
Test CRC 17CAE9BB
Copy CRC 17CAE9BB
Track not present in AccurateRip database
Copy OK
Track 11
Filename D:\zzz\11 - Ur Heart.wav
Pre-gap length 0:00:03.42
Peak level 99.8 %
Extraction speed 7.7 X
Track quality 100.0 %
Test CRC FB879599
Copy CRC FB879599
Track not present in AccurateRip database
Copy OK
None of the tracks are present in the AccurateRip database
No errors occurred
End of status report
==== Log checksum D2552EA4CFF5266C9C1E92141E8C1A29202959E42970A97BACC55AF9A337AC0F ====
 
Содержание индексной карты (.CUE)
REM GENRE "Electroacoustic Improvisation"
REM DATE 2006
REM DISCID 8A0AAB0B
REM COMMENT "ExactAudioCopy v1.0b3"
PERFORMER "Powerfield"
TITLE "Field Recordings"
FILE "01 - Scorched.wav" WAVE
TRACK 01 AUDIO
TITLE "Scorched"
PERFORMER "Powerfield"
INDEX 01 00:00:00
TRACK 02 AUDIO
TITLE "Neon Street Drive"
PERFORMER "Powerfield"
INDEX 00 03:58:58
FILE "02 - Neon Street Drive.wav" WAVE
INDEX 01 00:00:00
TRACK 03 AUDIO
TITLE "Field Rec. No. 2"
PERFORMER "Powerfield"
INDEX 00 01:32:11
FILE "03 - Field Rec. No. 2.wav" WAVE
INDEX 01 00:00:00
TRACK 04 AUDIO
TITLE "View. Street Level. Walk"
PERFORMER "Powerfield"
INDEX 00 03:55:18
FILE "04 - View. Street Level. Walk.wav" WAVE
INDEX 01 00:00:00
TRACK 05 AUDIO
TITLE "Shifting (Fake) Sand"
PERFORMER "Powerfield"
INDEX 00 03:19:59
FILE "05 - Shifting (Fake) Sand.wav" WAVE
INDEX 01 00:00:00
TRACK 06 AUDIO
TITLE "Aerial View (Slow Fly)"
PERFORMER "Powerfield"
INDEX 00 05:00:31
FILE "06 - Aerial View (Slow Fly).wav" WAVE
INDEX 01 00:00:00
TRACK 07 AUDIO
TITLE "Field Rec. No. 3"
PERFORMER "Powerfield"
INDEX 00 03:30:68
FILE "07 - Field Rec. No. 3.wav" WAVE
INDEX 01 00:00:00
TRACK 08 AUDIO
TITLE "Intersections"
PERFORMER "Powerfield"
INDEX 00 04:34:13
FILE "08 - Intersections.wav" WAVE
INDEX 01 00:00:00
TRACK 09 AUDIO
TITLE "Overcast 'Some Rain...'"
PERFORMER "Powerfield"
INDEX 00 05:15:26
FILE "09 - Overcast ''Some Rain...''.wav" WAVE
INDEX 01 00:00:00
TRACK 10 AUDIO
TITLE "Field Rec. No. 1"
PERFORMER "Powerfield"
INDEX 00 02:20:39
FILE "10 - Field Rec. No. 1.wav" WAVE
INDEX 01 00:00:00
TRACK 11 AUDIO
TITLE "Ur Heart"
PERFORMER "Powerfield"
INDEX 00 05:22:39
FILE "11 - Ur Heart.wav" WAVE
INDEX 01 00:00:00
 
Лог проверки качества
d:\>d:\aucdtect -d/-m0 d:\zzz\*.wav
auCDtect: CD records authenticity detector, version 0.8.2
Copyright (c) 2004 Oleg Berngardt. All rights reserved.
Copyright (c) 2004 Alexander Djourik. All rights reserved.
------------------------------------------------------------
Processing file: [01. Scorched.wav]
------------------------------------------------------------
This track looks like CDDA with probability 99%
------------------------------------------------------------
Processing file: [02. Neon Street Drive.wav]
------------------------------------------------------------
This track looks like CDDA with probability 100%
------------------------------------------------------------
Processing file: [03. Field Rec. No. 2.wav]
------------------------------------------------------------
This track looks like CDDA with probability 100%
------------------------------------------------------------
Processing file: [04. View. Street Level. Walk.wav]
------------------------------------------------------------
This track looks like CDDA with probability 100%
------------------------------------------------------------
Processing file: [05. Shifting (Fake) Sand.wav]
------------------------------------------------------------
This track looks like CDDA with probability 100%
------------------------------------------------------------
Processing file: [06. Aerial View (Slow Fly).wav]
------------------------------------------------------------
This track looks like CDDA with probability 100%
------------------------------------------------------------
Processing file: [07. Field Rec. No. 3.wav]
------------------------------------------------------------
This track looks like CDDA with probability 100%
------------------------------------------------------------
Processing file: [08. Intersections.wav]
------------------------------------------------------------
This track looks like CDDA with probability 100%
------------------------------------------------------------
Processing file: [09. Overcast 'Some Rain...'.wav]
------------------------------------------------------------
This track looks like CDDA with probability 100%
------------------------------------------------------------
Processing file: [10. Field Rec. No. 1.wav]
------------------------------------------------------------
This track looks like CDDA with probability 100%
------------------------------------------------------------
Processing file: [11. Ur Heart.wav]
------------------------------------------------------------
This track looks like CDDA with probability 100%
------------------------------------------------------------
Final Conclusion:
------------------------------------------------------------
These tracks looks like CDDA with probability 100%
Доп. информация:
 
Album Info
Recorded direct to DAT by Toby Hrycek-Robinson at Moat Studios London, 16th/17th April 2000
Mastered by Doug Shearer
Compiled, edited and titled by Gary Smith
Cover art by PG Design
Thanks: Toby, Mutton, Trevor Taylor
 
Состав
Gary Smith: stereo guitar
Joe Gallivan: moog synthesizer, electronic percussion
Pat Thomas: keyboard & electronics
По всем вопросам пишите личное сообщение пользователю M0p94ok.
08:09
142
Нет комментариев. Ваш будет первым!