Вы используете незарегистрированную версию компонента "Вкладки"!

Поиск

(Avant-Garde Jazz, Free Improvisation) Dewey Redman - African Venus - 1994, FLAC (image+.cue), lossless

(Avant-Garde Jazz, Free Improvisation) Dewey Redman - African Venus - 1994, FLAC (image+.cue), lossless
Треклист:
♦ Dewey Redman - African Venus ♦
Жанр: Avant-Garde Jazz, Free Improvisation
Страна-производитель диска: USA
Год издания: 1994
Издатель (лейбл): Evidence Music
Номер по каталогу: ECD 22093-2
Аудиокодек: FLAC (*.flac)
Тип рипа: image+.cue
Битрейт аудио: lossless
Продолжительность: 00:52:34
Источник (релизер): Рип с диска.
Наличие сканов в содержимом раздачи: да
Треклист:
01. African Venus [09:27]
02. Venus And Mars [07:48]
03. Mr Sandman [06:54]
04. Echo Prayer [05:53]
05. Satin Doll [08:23]
06. Take The A Train [07:41]
07. Turnaround [06:25]
 
Лог создания рипа
Exact Audio Copy V1.0 beta 3 from 29. August 2011
EAC extraction logfile from 16. November 2013, 19:35
Dewey`Redman / African Venus
Used drive : Optiarc DVD RW AD-5200A Adapter: 0 ID: 0
Read mode : Secure
Utilize accurate stream : Yes
Defeat audio cache : Yes
Make use of C2 pointers : No
Read offset correction : 48
Overread into Lead-In and Lead-Out : No
Fill up missing offset samples with silence : Yes
Delete leading and trailing silent blocks : No
Null samples used in CRC calculations : Yes
Used interface : Native Win32 interface for Win NT & 2000
Used output format : User Defined Encoder
Selected bitrate : 128 kBit/s
Quality : High
Add ID3 tag : No
Command line compressor : C:\Program Files\Exact Audio Copy\Flac\flac.exe
Additional command line options : -V -8 -T "Genre=%genre%" -T "Artist=%artist%" -T "Title=%title%" -T "Album=%albumtitle%" -T "Date=%year%" -T "Tracknumber=%tracknr%" -T "Comment=%comment%" %source%
TOC of the extracted CD
Track | Start | Length | Start sector | End sector
---------------------------------------------------------
1 | 0:00.00 | 9:27.27 | 0 | 42551
2 | 9:27.27 | 7:48.25 | 42552 | 77676
3 | 17:15.52 | 6:54.20 | 77677 | 108746
4 | 24:09.72 | 5:53.68 | 108747 | 135289
5 | 30:03.65 | 8:23.10 | 135290 | 173024
6 | 38:27.00 | 7:41.67 | 173025 | 207666
7 | 46:08.67 | 6:25.70 | 207667 | 236611
Range status and errors
Selected range
Filename F:\1994.Dewey Redman - African Venus\Dewey`Redman - African Venus.wav
Peak level 95.5 %
Extraction speed 3.7 X
Range quality 100.0 %
Test CRC 7FE9114C
Copy CRC 7FE9114C
Copy OK
No errors occurred
AccurateRip summary
Track 1 accurately ripped (confidence 4) [5F733800] (AR v2)
Track 2 accurately ripped (confidence 4) [929C8B1C] (AR v2)
Track 3 accurately ripped (confidence 4) [7E393CAD] (AR v2)
Track 4 accurately ripped (confidence 4) [C4174798] (AR v2)
Track 5 accurately ripped (confidence 4) [9D3D105B] (AR v2)
Track 6 accurately ripped (confidence 4) [A5B51AB5] (AR v2)
Track 7 accurately ripped (confidence 4) [3D3BA62F] (AR v2)
All tracks accurately ripped
End of status report
==== Log checksum B55D6DCDF983A8CBD1FBADCB660598211717F4A76F44584680BE81AD39E3CF58 ====
 
Содержание индексной карты (.CUE)
REM GENRE Jazz
REM DATE 1994
REM DISCID 580C5207
REM COMMENT "ExactAudioCopy v1.0b3"
PERFORMER "Dewey`Redman"
TITLE "African Venus"
FILE "Dewey`Redman - African Venus.flac" WAVE
TRACK 01 AUDIO
TITLE "African Venus"
PERFORMER "Dewey`Redman"
INDEX 01 00:00:00
TRACK 02 AUDIO
TITLE "Venus And Mars"
PERFORMER "Dewey`Redman"
INDEX 00 09:25:15
INDEX 01 09:27:27
TRACK 03 AUDIO
TITLE "Mr Sandman"
PERFORMER "Dewey`Redman"
INDEX 00 17:14:12
INDEX 01 17:15:52
TRACK 04 AUDIO
TITLE "Echo Prayer"
PERFORMER "Dewey`Redman"
INDEX 00 24:08:50
INDEX 01 24:09:72
TRACK 05 AUDIO
TITLE "Satin Doll"
PERFORMER "Dewey`Redman"
INDEX 00 30:03:10
INDEX 01 30:03:65
TRACK 06 AUDIO
TITLE "Take The A Train"
PERFORMER "Dewey`Redman"
INDEX 00 38:25:65
INDEX 01 38:27:00
TRACK 07 AUDIO
TITLE "Turnaround"
PERFORMER "Dewey`Redman"
INDEX 00 46:08:35
INDEX 01 46:08:67
 
Состав
Dewey Redman: tenor & alto sax, musette
Joshua Redman: tenor sax (2,3,5)
Charles Eubanks: piano
Anthony Cox: bass
Carl Allen: drums
Danny Sadownick: percussion
По всем вопросам пишите личное сообщение пользователю M0p94ok.
20:29
171
Нет комментариев. Ваш будет первым!