Вы используете незарегистрированную версию компонента "Вкладки"!

Поиск

(Avant-Garde Jazz, Big Band, Nine Winds) The Vinny Golia Large Ensemble - Tutto Contare - 1995, FLAC (tracks+.cue), lossless

(Avant-Garde Jazz, Big Band, Nine Winds) The Vinny Golia Large Ensemble - Tutto Contare - 1995, FLAC (tracks+.cue), lossless
Треклист:
The Vinny Golia Large Ensemble / Tutto Contare
Жанр: Avant-Garde Jazz, Big Band, Nine Winds
Страна-производитель диска: US
Год издания: 1995
Издатель (лейбл): 9 Winds Records
Номер по каталогу: NWCD 0170
Страна: US
Аудиокодек: FLAC (*.flac)
Тип рипа: tracks+.cue
Битрейт аудио: lossless
Продолжительность: 73:25
Источник (релизер): свой фирменный диск
Наличие сканов в содержимом раздачи:
Треклист:
1. Korean Lotus Driving Time 19:43
2. Peacocks & Unicorns 6:56
3. Chromazoid 8:20
4. May The Beacon Pass You By 10:44
5. Frayne Count 17:31
6. Desendant 10:00
 
Лог создания рипа
Exact Audio Copy V1.0 beta 3 from 29. August 2011
EAC extraction logfile from 9. November 2013, 16:28
The Vinny Golia Large Ensemble / Tutto Contare
Used drive : PIONEER DVD-RW DVR-115D Adapter: 0 ID: 0
Read mode : Secure
Utilize accurate stream : Yes
Defeat audio cache : Yes
Make use of C2 pointers : No
Read offset correction : 48
Overread into Lead-In and Lead-Out : No
Fill up missing offset samples with silence : Yes
Delete leading and trailing silent blocks : No
Null samples used in CRC calculations : Yes
Used interface : Installed external ASPI interface
Gap handling : Appended to previous track
Used output format : User Defined Encoder
Selected bitrate : 896 kBit/s
Quality : High
Add ID3 tag : No
Command line compressor : C:\Program Files\Exact Audio Copy\FLAC\FLAC.EXE
Additional command line options : -6 -V -T "ARTIST=%artist%" -T "TITLE=%title%" -T "ALBUM=%albumtitle%" -T "DATE=%year%" -T "TRACKNUMBER=%tracknr%" -T "GENRE=%genre%" -T "COMMENT=%comment%" -T "BAND=%albuminterpret%" -T "COMPOSER=%composer%" %haslyrics%--tag-from-file=LYRICS="%lyricsfile%"%haslyrics% -T "DISCNUMBER=%cdnumber%" -T "TOTALDISCS=%totalcds%" -T "TOTALTRACKS=%numtracks%" %hascover%--picture="%coverfile%"%hascover% %source% -o %dest%
TOC of the extracted CD
Track | Start | Length | Start sector | End sector
---------------------------------------------------------
1 | 0:00.60 | 19:49.37 | 60 | 89271
2 | 19:50.22 | 6:56.10 | 89272 | 120481
3 | 26:46.32 | 8:20.73 | 120482 | 158054
4 | 35:07.30 | 10:46.30 | 158055 | 206534
5 | 45:53.60 | 17:32.10 | 206535 | 285444
6 | 63:25.70 | 10:00.37 | 285445 | 330481
Track 1
Filename D:\zzz\01 - Korean Lotus Driving Time.wav
Pre-gap length 0:00:02.60
Peak level 100.0 %
Extraction speed 5.8 X
Track quality 99.9 %
Test CRC D717C4DC
Copy CRC D717C4DC
Accurately ripped (confidence 1) [4E5B3E9E] (AR v2)
Copy OK
Track 2
Filename D:\zzz\02 - Peacocks & Unicorns.wav
Pre-gap length 0:00:05.09
Peak level 94.7 %
Extraction speed 6.9 X
Track quality 100.0 %
Test CRC F8CC0D40
Copy CRC F8CC0D40
Accurately ripped (confidence 1) [3EB3E529] (AR v2)
Copy OK
Track 3
Filename D:\zzz\03 - Chromazoid.wav
Peak level 93.7 %
Extraction speed 7.1 X
Track quality 99.9 %
Test CRC 5AF64DAA
Copy CRC 5AF64DAA
Accurately ripped (confidence 1) [FCB6C5F7] (AR v2)
Copy OK
Track 4
Filename D:\zzz\04 - May The Beacon Pass You By.wav
Peak level 99.6 %
Extraction speed 7.9 X
Track quality 99.9 %
Test CRC EA2336E0
Copy CRC EA2336E0
Accurately ripped (confidence 1) [0BC247EC] (AR v2)
Copy OK
Track 5
Filename D:\zzz\05 - Frayne Count.wav
Pre-gap length 0:00:01.67
Peak level 100.0 %
Extraction speed 9.3 X
Track quality 100.0 %
Test CRC 8C135D84
Copy CRC 8C135D84
Accurately ripped (confidence 1) [FA0CC416] (AR v2)
Copy OK
Track 6
Filename D:\zzz\06 - Desendant.wav
Peak level 99.0 %
Extraction speed 9.8 X
Track quality 100.0 %
Test CRC 28FFFD24
Copy CRC 28FFFD24
Accurately ripped (confidence 1) [C618C35F] (AR v2)
Copy OK
All tracks accurately ripped
No errors occurred
End of status report
==== Log checksum 14152752BA1CD5A3529B16FFB6A6BE68E2540E17B7B1111BEF212086CFC933ED ====
 
Содержание индексной карты (.CUE)
REM GENRE "Avant-Garde Jazz"
REM DATE 1995
REM DISCID 4F113606
REM COMMENT "ExactAudioCopy v1.0b3"
PERFORMER "The Vinny Golia Large Ensemble"
TITLE "Tutto Contare"
FILE "01 - Korean Lotus Driving Time.wav" WAVE
TRACK 01 AUDIO
TITLE "Korean Lotus Driving Time"
PERFORMER "The Vinny Golia Large Ensemble"
PREGAP 00:00:60
INDEX 01 00:00:00
TRACK 02 AUDIO
TITLE "Peacocks & Unicorns"
PERFORMER "The Vinny Golia Large Ensemble"
INDEX 00 19:44:28
FILE "02 - Peacocks & Unicorns.wav" WAVE
INDEX 01 00:00:00
FILE "03 - Chromazoid.wav" WAVE
TRACK 03 AUDIO
TITLE "Chromazoid"
PERFORMER "The Vinny Golia Large Ensemble"
INDEX 01 00:00:00
FILE "04 - May The Beacon Pass You By.wav" WAVE
TRACK 04 AUDIO
TITLE "May The Beacon Pass You By"
PERFORMER "The Vinny Golia Large Ensemble"
INDEX 01 00:00:00
TRACK 05 AUDIO
TITLE "Frayne Count"
PERFORMER "The Vinny Golia Large Ensemble"
INDEX 00 10:44:38
FILE "05 - Frayne Count.wav" WAVE
INDEX 01 00:00:00
FILE "06 - Desendant.wav" WAVE
TRACK 06 AUDIO
TITLE "Desendant"
PERFORMER "The Vinny Golia Large Ensemble"
INDEX 01 00:00:00
 
Лог проверки качества
d:\>d:\aucdtect -d/-m0 d:\zzz\*.wav
auCDtect: CD records authenticity detector, version 0.8.2
Copyright (c) 2004 Oleg Berngardt. All rights reserved.
Copyright (c) 2004 Alexander Djourik. All rights reserved.
------------------------------------------------------------
Processing file: [01. Korean Lotus Driving Time.wav]
------------------------------------------------------------
This track looks like CDDA with probability 100%
------------------------------------------------------------
Processing file: [02. Peacocks & Unicorns.wav]
------------------------------------------------------------
This track looks like CDDA with probability 100%
------------------------------------------------------------
Processing file: [03. Chromazoid.wav]
------------------------------------------------------------
This track looks like CDDA with probability 100%
------------------------------------------------------------
Processing file: [04. May The Beacon Pass You By.wav]
------------------------------------------------------------
This track looks like CDDA with probability 100%
------------------------------------------------------------
Processing file: [05. Frayne Count.wav]
------------------------------------------------------------
This track looks like CDDA with probability 100%
------------------------------------------------------------
Processing file: [06. Desendant.wav]
------------------------------------------------------------
This track looks like CDDA with probability 100%
------------------------------------------------------------
Final Conclusion:
------------------------------------------------------------
These tracks looks like CDDA with probability 100%
Доп. информация:
 
Album Info & AMG Review
Saturday November 20, L.A. Harbor College Music Recital Hall
Recorded by Melogem Productions
Executive producer: Melissa Cobb
Mastered by John Golden
Design by Vinny Golia & Jeff Atherton
Liner photo by Neil France
All other photos by Jeff Atherton
The Vinny Golia Large Ensemble is comprised on this live recording of three trumpets, four trombones, tuba, seven reeds, keyboards, three strings, two basses, drums and two percussionists. The huge band performs six of Golia's complex originals. Among the many soloists on the set are the leader on two types of clarinets, trumpeters John Fumo, Rob Blakeslee and Mark Underwood, trombonists Mike Vlatkovich and Eric Jorgensen, David Ocker on clarinet, pianist Wayne Peet, altoist Steve Flower, the tenors of Steve Marsh and Bill Plake and violinist Harry Scoro. However it is the dense ensembles that are most remarkable. The music is consistently atonal yet leaves room for space and develops logically (if not predictably). The sounds are sometimes otherworldly (making it difficult to know who is playing what) and the performances do not swing conventionally but they definitely fit into the area of jazz due to the high level of improvisation. This stimulating set is recommended most to listeners with very open ears.
 
Состав
Mark Underwood: trumpet & flugelhorn
John Fumo: trumpet & flugelhorn
Rob Blakeslee: trumpet & flugelhorn
Eric Jorgensen: trombone
Mike Vlatkovich: trombone
George McMullen: trombone
Joey Sellers: trombone
William Roper: tuba
Steve Marsh: piccolo, flute, Bb clarinet, tenor saxophone
Steve Fowler: flute & alto saxophone
Charles Fernandez: bassoon
Steve Adams: flute, alto flute, sopranino, soprano & alto saxophones
Bill Plake: C & alto flute, soprano & tenor saxophones
Vinny Golia: piccolo, alto & bass flutes, sopranino, soprano, baritone & bass saxophones, Eb, A, alto, bass & contra-bass clarinets, bassoon
David Ocker: Bb & bass clarinets
David Johnson: chimes, timpani, vibraphone & marimba
Brad Dutz: marimba, timpani, orchestra bells, hand percussion
Wayne Peet: keyboards & piano
Harry Scorzo: violin
Michael Jacobsen: cello
Matt Cooker: cello
Ken Filiano: contrabass
Joel Hamilton: contrabass
Alex Cline: drums & percussion
Stephanie Henry: conductor
Any questions -> support@pro-jazz.com. По всем вопросам пишите -> support@pro-jazz.com
20:30
162
Нет комментариев. Ваш будет первым!