Вы используете незарегистрированную версию компонента "Вкладки"!

Поиск

(Free Jazz, Avant-Garde Jazz, Nine Winds) The Rob Blakeslee Quartet - Spirit Of The Times - 1998, FLAC (tracks+.cue), lossless

(Free Jazz, Avant-Garde Jazz, Nine Winds) The Rob Blakeslee Quartet - Spirit Of The Times - 1998, FLAC (tracks+.cue), lossless
Треклист:
The Rob Blakeslee Quartet / Spirit Of The Times
Жанр: Free Jazz, Avant-Garde Jazz, Nine Winds
Страна-производитель диска: US
Год издания: 1998
Издатель (лейбл): 9 Winds Records
Номер по каталогу: NWCD0208
Страна: US
Аудиокодек: FLAC (*.flac)
Тип рипа: tracks+.cue
Битрейт аудио: lossless
Продолжительность: 74:01
Источник (релизер): свой фирменный диск
Наличие сканов в содержимом раздачи:
Треклист:
1. Just Off The Avenue (For Bobby Bradford) 14:26
2. A Trusty Shellback 17:50
3. Colorful Ears 11:21
4. Squirrels 7:37
5. Slaybell 7:19
6. Indecent Response 15:08
 
Лог создания рипа
Exact Audio Copy V1.0 beta 3 from 29. August 2011
EAC extraction logfile from 10. November 2013, 0:39
The Rob Blakeslee Quartet / Spirit Of The Times
Used drive : PIONEER DVD-RW DVR-115D Adapter: 0 ID: 0
Read mode : Secure
Utilize accurate stream : Yes
Defeat audio cache : Yes
Make use of C2 pointers : No
Read offset correction : 48
Overread into Lead-In and Lead-Out : No
Fill up missing offset samples with silence : Yes
Delete leading and trailing silent blocks : No
Null samples used in CRC calculations : Yes
Used interface : Installed external ASPI interface
Gap handling : Appended to previous track
Used output format : User Defined Encoder
Selected bitrate : 896 kBit/s
Quality : High
Add ID3 tag : No
Command line compressor : C:\Program Files\Exact Audio Copy\FLAC\FLAC.EXE
Additional command line options : -6 -V -T "ARTIST=%artist%" -T "TITLE=%title%" -T "ALBUM=%albumtitle%" -T "DATE=%year%" -T "TRACKNUMBER=%tracknr%" -T "GENRE=%genre%" -T "COMMENT=%comment%" -T "BAND=%albuminterpret%" -T "COMPOSER=%composer%" %haslyrics%--tag-from-file=LYRICS="%lyricsfile%"%haslyrics% -T "DISCNUMBER=%cdnumber%" -T "TOTALDISCS=%totalcds%" -T "TOTALTRACKS=%numtracks%" %hascover%--picture="%coverfile%"%hascover% %source% -o %dest%
TOC of the extracted CD
Track | Start | Length | Start sector | End sector
---------------------------------------------------------
1 | 0:01.00 | 14:30.21 | 75 | 65345
2 | 14:31.21 | 17:53.63 | 65346 | 145883
3 | 32:25.09 | 11:24.68 | 145884 | 197251
4 | 43:50.02 | 7:40.64 | 197252 | 231815
5 | 51:30.66 | 7:22.56 | 231816 | 265021
6 | 58:53.47 | 15:08.46 | 265022 | 333167
Track 1
Filename D:\zzz\01 - Just Off The Avenue (For Bobby Bradford).wav
Pre-gap length 0:00:03.00
Peak level 100.0 %
Extraction speed 5.7 X
Track quality 100.0 %
Test CRC A9B6729E
Copy CRC A9B6729E
Track not present in AccurateRip database
Copy OK
Track 2
Filename D:\zzz\02 - A Trusty Shellback.wav
Pre-gap length 0:00:03.45
Peak level 90.7 %
Extraction speed 7.2 X
Track quality 100.0 %
Test CRC 55E25FAB
Copy CRC 55E25FAB
Track not present in AccurateRip database
Copy OK
Track 3
Filename D:\zzz\03 - Colorful Ears.wav
Pre-gap length 0:00:03.45
Peak level 91.9 %
Extraction speed 7.7 X
Track quality 99.9 %
Test CRC 03F26AEB
Copy CRC 03F26AEB
Track not present in AccurateRip database
Copy OK
Track 4
Filename D:\zzz\04 - Squirrels.wav
Pre-gap length 0:00:03.44
Peak level 100.0 %
Extraction speed 8.4 X
Track quality 100.0 %
Test CRC 9A68EF36
Copy CRC 9A68EF36
Track not present in AccurateRip database
Copy OK
Track 5
Filename D:\zzz\05 - Slaybell.wav
Pre-gap length 0:00:03.45
Peak level 86.8 %
Extraction speed 8.9 X
Track quality 100.0 %
Test CRC 5153D681
Copy CRC 5153D681
Track not present in AccurateRip database
Copy OK
Track 6
Filename D:\zzz\06 - Indecent Response.wav
Pre-gap length 0:00:03.45
Peak level 93.7 %
Extraction speed 9.8 X
Track quality 100.0 %
Test CRC 70D632B9
Copy CRC 70D632B9
Track not present in AccurateRip database
Copy OK
None of the tracks are present in the AccurateRip database
No errors occurred
End of status report
==== Log checksum B5442EA2C952A513EDB05CF9BE1A787CD297FCACB26B67842E7B180F6E5F9E9F ====
 
Содержание индексной карты (.CUE)
REM GENRE "Avant-Garde Jazz"
REM DATE 1998
REM DISCID 55115906
REM COMMENT "ExactAudioCopy v1.0b3"
PERFORMER "The Rob Blakeslee Quartet"
TITLE "Spirit Of The Times"
FILE "01 - Just Off The Avenue (For Bobby Bradford).wav" WAVE
TRACK 01 AUDIO
TITLE "Just Off The Avenue (For Bobby Bradford)"
PERFORMER "The Rob Blakeslee Quartet"
FLAGS DCP
PREGAP 00:01:00
INDEX 01 00:00:00
TRACK 02 AUDIO
TITLE "A Trusty Shellback"
PERFORMER "The Rob Blakeslee Quartet"
FLAGS DCP
INDEX 00 14:26:51
FILE "02 - A Trusty Shellback.wav" WAVE
INDEX 01 00:00:00
TRACK 03 AUDIO
TITLE "Colorful Ears"
PERFORMER "The Rob Blakeslee Quartet"
FLAGS DCP
INDEX 00 17:50:18
FILE "03 - Colorful Ears.wav" WAVE
INDEX 01 00:00:00
TRACK 04 AUDIO
TITLE "Squirrels"
PERFORMER "The Rob Blakeslee Quartet"
FLAGS DCP
INDEX 00 11:21:24
FILE "04 - Squirrels.wav" WAVE
INDEX 01 00:00:00
TRACK 05 AUDIO
TITLE "Slaybell"
PERFORMER "The Rob Blakeslee Quartet"
FLAGS DCP
INDEX 00 07:37:19
FILE "05 - Slaybell.wav" WAVE
INDEX 01 00:00:00
TRACK 06 AUDIO
TITLE "Indecent Response"
PERFORMER "The Rob Blakeslee Quartet"
FLAGS DCP
INDEX 00 07:19:11
FILE "06 - Indecent Response.wav" WAVE
INDEX 01 00:00:00
 
Лог проверки качества
d:\>d:\aucdtect -d/-m0 d:\zzz\*.wav
auCDtect: CD records authenticity detector, version 0.8.2
Copyright (c) 2004 Oleg Berngardt. All rights reserved.
Copyright (c) 2004 Alexander Djourik. All rights reserved.
------------------------------------------------------------
Processing file: [01. Just Off The Avenue (For Bobby Bradford).wav]
------------------------------------------------------------
This track looks like CDDA with probability 100%
------------------------------------------------------------
Processing file: [02. A Trusty Shellback.wav]
------------------------------------------------------------
This track looks like CDDA with probability 100%
------------------------------------------------------------
Processing file: [03. Colorful Ears.wav]
------------------------------------------------------------
This track looks like CDDA with probability 100%
------------------------------------------------------------
Processing file: [04. Squirrels.wav]
------------------------------------------------------------
This track looks like CDDA with probability 99%
------------------------------------------------------------
Processing file: [05. Slaybell.wav]
------------------------------------------------------------
This track looks like CDDA with probability 100%
------------------------------------------------------------
Processing file: [06. Indecent Response.wav]
------------------------------------------------------------
This track looks like CDDA with probability 100%
------------------------------------------------------------
Final Conclusion:
------------------------------------------------------------
These tracks looks like CDDA with probability 100%
Доп. информация:
 
Album Info & AMG Review
All compositions by Rob Blakeslee
Produced by Vinny Golia
Recorded at Newzone Studio, Los Angeles, California, 5/29/97
Recorded & engineered by Wayne Peet
Mixed by Vinny Golia & Wayne Peet, 6/22/97
Layout & design by Jeff Atherton & Vinny Golia
Thanks to Vinny, Billy, Ken, Wayne, Tom Guralnick, Tina Marsh, Steve Hahn & Gary Chen of Stein Music
Rob Blakeslee plays Marcinkiewicz trumpets & cornets
Trumpeter Rob Blakeslee leads a piano-less quartet filled with other regulars of the Nine Winds label on this CD, including its owner, Vinny Golia (who sticks to clarinet and bass clarinet), bassist Ken Filiano, and drummer Billy Mintz. The first of six Blakeslee originals, "Just off the Avenue," is dedicated to cornetist Bobby Bradford, who with clarinetist John Carter had a similar type of group in Los Angeles; Golia does a fine job of emulating Carter while still sounding like himself. "A Trusty Shellback" takes half of its nearly 18 minutes to get going, starting off as otherworldly sound explorations before a theme is stated, and there are excellent solos from Golia and Blakeslee. "Colorful Ears" (which has a great title) has prominent roles for Filiano and Mintz (who takes an extended solo) and "Squirrels" is quite intense, while "Slaybell" is a wandering and thoughtful ballad. The closing "Indecent Response" has some of the best solos on the session, with Golia sounding a little like Eric Dolphy on bass clarinet (although without the interval jumps) and Blakeslee heard in top form. The music throughout this stimulating set is unpredictable post-bop that is free in spots, always holding one's interest.
 
Состав
Rob Blakeslee: trumpet, cornet & flugelhorn
Vinny Golia: Bb & bass clarinets
Ken Filiano: bass
Billy Mintz: drums
Any questions -> support@pro-jazz.com. По всем вопросам пишите -> support@pro-jazz.com
20:30
158
Нет комментариев. Ваш будет первым!