Вы используете незарегистрированную версию компонента "Вкладки"!

Поиск

(Avant-Garde, New World Records) Joey Baron (with Steve Swell and Ellery Eskelin) - RAIsedpleasuredot - 1994, FLAC (tracks+.cue), lossless

(Avant-Garde, New World Records) Joey Baron (with Steve Swell and Ellery Eskelin) - RAIsedpleasuredot - 1994, FLAC (tracks+.cue), lossless
Треклист:
Joey Baron / RAIsedpleasuredot
Жанр: Avant-Garde, New World Records
Страна-производитель диска: U.S.A.
Год издания: 1994
Издатель (лейбл): New World Records / CounterCurrents
Номер по каталогу: 80449-2
Аудиокодек: FLAC (*.flac)
Тип рипа: tracks+.cue
Битрейт аудио: lossless
Продолжительность: 1:17:06
Источник (релизер): я
Наличие сканов в содержимом раздачи: да (incomplete)
Треклист:
01. Peckerwood 3:16
02. Boss Hog 6:50
03. Hello! Hello! Hello! 2:09
04. I’ve Been Holding It All My Life 6:06
05. Stand Up 4:51
06. Absolutely 3:53
07. Unleashing the Dobermans 2:16
08. Low Maintenance 5:06
09. Aquarela do Brasil (Ary Barroso) 0:54
10. Pulse 3:31
11. Hey Hockaloogie 6:14
12. The Elephant and the Poacher 6:40
13. Hutch 5:01
14. Car 4:02
15. Theme from the Movie of the Same Name 2:40
16. Unleaded 10:58
17. The Girl from Ipanema Blues (Antonio Carlos Jobim, N. Gimbel, V. De Moraes, arr. by Joe Baron) 2:38
All compositions by Joey Baron except where indicated.
Recorded at Sear Sound, New York City, on February 22 and 23, 1993.
Ellery Eskelin – Tenor Saxophone
Steve Swell – Trombone
Joey Baron – Drums
 
Лог создания рипа
Exact Audio Copy V1.0 beta 3 from 29. August 2011
EAC extraction logfile from 16. November 2013, 13:45
Joey Baron / RAIsedpleasuredot
Used drive : SlimtypeeNAU508 5 Adapter: 1 ID: 0
Read mode : Secure
Utilize accurate stream : Yes
Defeat audio cache : Yes
Make use of C2 pointers : No
Read offset correction : 6
Overread into Lead-In and Lead-Out : No
Fill up missing offset samples with silence : Yes
Delete leading and trailing silent blocks : No
Null samples used in CRC calculations : Yes
Used interface : Native Win32 interface for Win NT & 2000
Gap handling : Appended to previous track
Used output format : User Defined Encoder
Selected bitrate : 768 kBit/s
Quality : High
Add ID3 tag : No
Command line compressor : C:\Program Files (x86)\Exact Audio Copy\Flac\flac.exe
Additional command line options : -8 -V -T "ARTIST=%artist%" -T "TITLE=%title%" -T "ALBUM=%albumtitle%" -T "DATE=%year%" -T "TRACKNUMBER=%tracknr%" -T "GENRE=%genre%" -T "PERFORMER=%albuminterpret%" -T "COMPOSER=%composer%" %haslyrics%--tag-from-file=LYRICS="%lyricsfile%"%haslyrics% -T "ALBUMARTIST=%albumartist%" -T "DISCNUMBER=%cdnumber%" -T "TOTALDISCS=%totalcds%" -T "TOTALTRACKS=%numtracks%" -T "COMMENT=%comment%" %source% -o %dest%
TOC of the extracted CD
Track | Start | Length | Start sector | End sector
---------------------------------------------------------
1 | 0:00.00 | 3:16.30 | 0 | 14729
2 | 3:16.30 | 6:50.37 | 14730 | 45516
3 | 10:06.67 | 2:09.15 | 45517 | 55206
4 | 12:16.07 | 6:06.25 | 55207 | 82681
5 | 18:22.32 | 4:51.23 | 82682 | 104529
6 | 23:13.55 | 3:52.60 | 104530 | 121989
7 | 27:06.40 | 2:16.35 | 121990 | 132224
8 | 29:23.00 | 5:05.57 | 132225 | 155156
9 | 34:28.57 | 0:53.60 | 155157 | 159191
10 | 35:22.42 | 3:30.45 | 159192 | 174986
11 | 38:53.12 | 6:14.05 | 174987 | 203041
12 | 45:07.17 | 6:40.25 | 203042 | 233066
13 | 51:47.42 | 5:01.30 | 233067 | 255671
14 | 56:48.72 | 4:02.03 | 255672 | 273824
15 | 60:51.00 | 2:39.50 | 273825 | 285799
16 | 63:30.50 | 10:58.22 | 285800 | 335171
17 | 74:28.72 | 2:37.40 | 335172 | 346986
Track 1
Filename C:\EAC rips\01 - Peckerwood.wav
Pre-gap length 0:00:02.00
Peak level 94.2 %
Extraction speed 2.3 X
Track quality 100.0 %
Test CRC D76C9B04
Copy CRC D76C9B04
Accurately ripped (confidence 3) [C9F24A2C] (AR v2)
Copy OK
Track 2
Filename C:\EAC rips\02 - Boss Hog.wav
Pre-gap length 0:00:00.03
Peak level 59.1 %
Extraction speed 2.8 X
Track quality 100.0 %
Test CRC 82407D4B
Copy CRC 82407D4B
Accurately ripped (confidence 3) [63D788F4] (AR v2)
Copy OK
Track 3
Filename C:\EAC rips\03 - Hello! Hello! Hello!.wav
Pre-gap length 0:00:00.50
Peak level 93.0 %
Extraction speed 2.5 X
Track quality 100.0 %
Test CRC 25885A0C
Copy CRC 25885A0C
Accurately ripped (confidence 3) [BC4E5D7D] (AR v2)
Copy OK
Track 4
Filename C:\EAC rips\04 - I've Been Holding It All My Life.wav
Pre-gap length 0:00:03.05
Peak level 94.7 %
Extraction speed 3.2 X
Track quality 100.0 %
Test CRC 916F9331
Copy CRC 916F9331
Accurately ripped (confidence 3) [1CCF83BE] (AR v2)
Copy OK
Track 5
Filename C:\EAC rips\05 - Stand Up.wav
Pre-gap length 0:00:02.67
Peak level 63.5 %
Extraction speed 3.3 X
Track quality 100.0 %
Test CRC 01204C08
Copy CRC 01204C08
Accurately ripped (confidence 3) [6C484A96] (AR v2)
Copy OK
Track 6
Filename C:\EAC rips\06 - Absolutely.wav
Pre-gap length 0:00:06.50
Peak level 92.3 %
Extraction speed 3.4 X
Track quality 100.0 %
Test CRC 05D7C6E6
Copy CRC 05D7C6E6
Accurately ripped (confidence 3) [73EA225B] (AR v2)
Copy OK
Track 7
Filename C:\EAC rips\07 - Unleashing the Dobermans.wav
Pre-gap length 0:00:00.65
Peak level 100.0 %
Extraction speed 2.4 X
Track quality 99.9 %
Test CRC D326F35C
Copy CRC D326F35C
Accurately ripped (confidence 3) [4FB8EEED] (AR v2)
Copy OK
Track 8
Filename C:\EAC rips\08 - Low Maintenance.wav
Pre-gap length 0:00:01.30
Peak level 84.0 %
Extraction speed 3.2 X
Track quality 99.9 %
Test CRC 170F7534
Copy CRC 170F7534
Accurately ripped (confidence 3) [30D21671] (AR v2)
Copy OK
Track 9
Filename C:\EAC rips\09 - Aquarela do Brasil.wav
Pre-gap length 0:00:03.02
Peak level 18.8 %
Extraction speed 2.5 X
Track quality 100.0 %
Test CRC 873539CC
Copy CRC 873539CC
Accurately ripped (confidence 3) [98D97FA1] (AR v2)
Copy OK
Track 10
Filename C:\EAC rips\10 - Pulse.wav
Pre-gap length 0:00:00.60
Peak level 62.0 %
Extraction speed 3.8 X
Track quality 100.0 %
Test CRC 5FE185C1
Copy CRC 5FE185C1
Accurately ripped (confidence 3) [FBBA061C] (AR v2)
Copy OK
Track 11
Filename C:\EAC rips\11 - Hey Hockaloogie.wav
Pre-gap length 0:00:02.67
Peak level 100.0 %
Extraction speed 4.2 X
Track quality 100.0 %
Test CRC 22A5DB82
Copy CRC 22A5DB82
Accurately ripped (confidence 3) [752CAA97] (AR v2)
Copy OK
Track 12
Filename C:\EAC rips\12 - The Elephant and the Poacher.wav
Pre-gap length 0:00:05.02
Peak level 99.0 %
Extraction speed 4.5 X
Track quality 100.0 %
Test CRC 09C86B4D
Copy CRC 09C86B4D
Accurately ripped (confidence 3) [0DC1002D] (AR v2)
Copy OK
Track 13
Filename C:\EAC rips\13 - Hutch.wav
Pre-gap length 0:00:03.35
Peak level 91.2 %
Extraction speed 4.5 X
Track quality 100.0 %
Test CRC 25327B68
Copy CRC 25327B68
Accurately ripped (confidence 3) [616E5C89] (AR v2)
Copy OK
Track 14
Filename C:\EAC rips\14 - Car.wav
Pre-gap length 0:00:00.02
Peak level 70.4 %
Extraction speed 3.7 X
Track quality 99.9 %
Test CRC C19341EB
Copy CRC C19341EB
Accurately ripped (confidence 3) [13065626] (AR v2)
Copy OK
Track 15
Filename C:\EAC rips\15 - Theme from the Movie of the Same Name.wav
Pre-gap length 0:00:02.38
Peak level 26.6 %
Extraction speed 3.3 X
Track quality 99.9 %
Test CRC 46B8A7E5
Copy CRC 46B8A7E5
Accurately ripped (confidence 3) [664531F4] (AR v2)
Copy OK
Track 16
Filename C:\EAC rips\16 - Unleaded.wav
Pre-gap length 0:00:03.40
Peak level 79.3 %
Extraction speed 5.3 X
Track quality 100.0 %
Test CRC C9F170C9
Copy CRC C9F170C9
Accurately ripped (confidence 3) [3BAF595B] (AR v2)
Copy OK
Track 17
Filename C:\EAC rips\17 - The Girl from Ipanema Blues.wav
Pre-gap length 0:00:01.30
Peak level 94.7 %
Extraction speed 4.6 X
Track quality 100.0 %
Test CRC 72B56D87
Copy CRC 72B56D87
Accurately ripped (confidence 3) [1B5ACD08] (AR v2)
Copy OK
All tracks accurately ripped
No errors occurred
End of status report
---- CUETools DB Plugin V2.1.4
[CTDB TOCID: nbPLwrXabZu1JDmV4nqpJ2drBNU-] found
Submit result: nbPLwrXabZu1JDmV4nqpJ2drBNU- has been confirmed
Track | CTDB Status
1 | (5/5) Accurately ripped
2 | (5/5) Accurately ripped
3 | (5/5) Accurately ripped
4 | (5/5) Accurately ripped
5 | (5/5) Accurately ripped
6 | (5/5) Accurately ripped
7 | (5/5) Accurately ripped
8 | (5/5) Accurately ripped
9 | (5/5) Accurately ripped
10 | (5/5) Accurately ripped
11 | (5/5) Accurately ripped
12 | (5/5) Accurately ripped
13 | (5/5) Accurately ripped
14 | (5/5) Accurately ripped
15 | (5/5) Accurately ripped
16 | (5/5) Accurately ripped
17 | (5/5) Accurately ripped
==== Log checksum 087CCF8BABAD90C703E0A516253AEC01199AF1E170F05BEE3E38FE01854A7DFB ====
 
Содержание индексной карты (.CUE)
REM GENRE Jazz
REM DATE 1994
REM DISCID E4121211
REM COMMENT "ExactAudioCopy v1.0b3"
PERFORMER "Joey Baron"
TITLE "RAIsedpleasuredot"
FILE "01 - Peckerwood.wav" WAVE
TRACK 01 AUDIO
TITLE "Peckerwood"
PERFORMER "Joey Baron"
INDEX 01 00:00:00
TRACK 02 AUDIO
TITLE "Boss Hog"
PERFORMER "Joey Baron"
INDEX 00 03:16:27
FILE "02 - Boss Hog.wav" WAVE
INDEX 01 00:00:00
TRACK 03 AUDIO
TITLE "Hello! Hello! Hello!"
PERFORMER "Joey Baron"
INDEX 00 06:49:62
FILE "03 - Hello! Hello! Hello!.wav" WAVE
INDEX 01 00:00:00
TRACK 04 AUDIO
TITLE "I've Been Holding It All My Life"
PERFORMER "Joey Baron"
INDEX 00 02:06:10
FILE "04 - I've Been Holding It All My Life.wav" WAVE
INDEX 01 00:00:00
TRACK 05 AUDIO
TITLE "Stand Up"
PERFORMER "Joey Baron"
INDEX 00 06:03:33
FILE "05 - Stand Up.wav" WAVE
INDEX 01 00:00:00
TRACK 06 AUDIO
TITLE "Absolutely"
PERFORMER "Joey Baron"
INDEX 00 04:44:48
FILE "06 - Absolutely.wav" WAVE
INDEX 01 00:00:00
TRACK 07 AUDIO
TITLE "Unleashing the Dobermans"
PERFORMER "Joey Baron"
INDEX 00 03:51:70
FILE "07 - Unleashing the Dobermans.wav" WAVE
INDEX 01 00:00:00
TRACK 08 AUDIO
TITLE "Low Maintenance"
PERFORMER "Joey Baron"
INDEX 00 02:15:05
FILE "08 - Low Maintenance.wav" WAVE
INDEX 01 00:00:00
TRACK 09 AUDIO
TITLE "Aquarela do Brasil"
PERFORMER "Joey Baron"
INDEX 00 05:02:55
FILE "09 - Aquarela do Brasil.wav" WAVE
INDEX 01 00:00:00
TRACK 10 AUDIO
TITLE "Pulse"
PERFORMER "Joey Baron"
INDEX 00 00:53:00
FILE "10 - Pulse.wav" WAVE
INDEX 01 00:00:00
TRACK 11 AUDIO
TITLE "Hey Hockaloogie"
PERFORMER "Joey Baron"
INDEX 00 03:27:53
FILE "11 - Hey Hockaloogie.wav" WAVE
INDEX 01 00:00:00
TRACK 12 AUDIO
TITLE "The Elephant and the Poacher"
PERFORMER "Joey Baron"
INDEX 00 06:09:03
FILE "12 - The Elephant and the Poacher.wav" WAVE
INDEX 01 00:00:00
TRACK 13 AUDIO
TITLE "Hutch"
PERFORMER "Joey Baron"
INDEX 00 06:36:65
FILE "13 - Hutch.wav" WAVE
INDEX 01 00:00:00
TRACK 14 AUDIO
TITLE "Car"
PERFORMER "Joey Baron"
INDEX 00 05:01:28
FILE "14 - Car.wav" WAVE
INDEX 01 00:00:00
TRACK 15 AUDIO
TITLE "Theme from the Movie of the Same Name"
PERFORMER "Joey Baron"
INDEX 00 03:59:40
FILE "15 - Theme from the Movie of the Same Name.wav" WAVE
INDEX 01 00:00:00
TRACK 16 AUDIO
TITLE "Unleaded"
PERFORMER "Joey Baron"
INDEX 00 02:36:10
FILE "16 - Unleaded.wav" WAVE
INDEX 01 00:00:00
TRACK 17 AUDIO
TITLE "The Girl from Ipanema Blues"
PERFORMER "Joey Baron"
INDEX 00 10:56:67
FILE "17 - The Girl from Ipanema Blues.wav" WAVE
INDEX 01 00:00:00
Any questions -> support@pro-jazz.com. По всем вопросам пишите -> support@pro-jazz.com
20:28
222
Нет комментариев. Ваш будет первым!