Вы используете незарегистрированную версию компонента "Вкладки"!

Поиск

(Avant-Garde Jazz, Free Improvisation) David S. Ware Planetary Unknown - Live at Jazzfestival Saalfelden 2011 - 2012, FLAC (image+.cue), lossless

(Avant-Garde Jazz, Free Improvisation) David S. Ware Planetary Unknown - Live at Jazzfestival Saalfelden 2011 - 2012, FLAC (image+.cue), lossless
Треклист:
David S. Ware Planetary Unknown / Live at Jazzfestival Saalfelden 2011
Жанр: Avant-Garde Jazz, Free Improvisation
Страна-производитель диска: US
Год издания: 2012
Издатель (лейбл): AUM Fidelity
Номер по каталогу: AUM074
Аудиокодек: FLAC (*.flac)
Тип рипа: image+.cue
Битрейт аудио: lossless
Продолжительность: 01:06:56
Источник (релизер): собственный рип
Треклист:
01. Precessional 1 (33:15)
02. Precessional 2 (19:04)
03. Precessional 3 (14:37)
 
Лог создания рипа
Exact Audio Copy V1.0 beta 3 from 29. August 2011
Отчёт EAC об извлечении, выполненном 19. декабря 2012, 22:29
David S. Ware Planetary Unknown / Live at Jazzfestival Saalfelden 2011
Дисковод: HL-DT-STDVDRAM GH22NS70 Adapter: 2 ID: 0
Режим чтения : Достоверность
Использование точного потока : Да
Отключение кэша аудио : Да
Использование указателей C2 : Нет
Коррекция смещения при чтении : 667
Способность читать области Lead-in и Lead-out : Нет
Заполнение пропущенных сэмплов тишиной : Да
Удаление блоков с тишиной в начале и конце : Нет
При вычислениях CRC использовались нулевые сэмплы : Да
Интерфейс : Установленный внешний ASPI-интерфейс
Выходной формат : Пользовательский кодировщик
Выбранный битрейт : 768 kBit/s
Качество : Высокий
Добавление ID3-тега : Нет
Утилита сжатия : C:\Program Files\FLAC\flac.exe
Дополнительные параметры : -V -8 -T "Date=%year%" -T "Genre=%genre%" %source%
TOC извлечённого CD
Трек | Старт | Длительность | Начальный сектор | Конечный сектор
---------------------------------------------------------------------
1 | 0:00.00 | 33:15.28 | 0 | 149652
2 | 33:15.28 | 19:04.17 | 149653 | 235469
3 | 52:19.45 | 14:36.57 | 235470 | 301226
Характеристики диапазона извлечения и сообщения об ошибках
Выбранный диапазон
Имя файла D:\Новая папка (2)\David S. Ware Planetary Unknown - Live at Jazzfestival Saalfelden 2011.wav
Пиковый уровень 83.1 %
Скорость извлечения 2.1 X
Качество диапазона 100.0 %
CRC теста B892BEA3
CRC копии B892BEA3
Копирование... OK
Ошибок не произошло
Конец отчёта
==== Контрольная сумма отчёта 48608009FB7F1741F4502D328B3A976F5A05AC2C1DB8CAE3E78871F3F7484F6D ====
 
Содержание индексной карты (.CUE)
REM GENRE Avantgarde
REM DATE 2012
REM DISCID 250FB003
REM COMMENT "ExactAudioCopy v1.0b3"
PERFORMER "David S. Ware Planetary Unknown"
TITLE "Live at Jazzfestival Saalfelden 2011"
FILE "David S. Ware Planetary Unknown - Live at Jazzfestival Saalfelden 2011.flac" WAVE
TRACK 01 AUDIO
TITLE "Precesional 1"
PERFORMER "David S. Ware Planetary Unknown"
INDEX 01 00:00:00
TRACK 02 AUDIO
TITLE "Precesional 2"
PERFORMER "David S. Ware Planetary Unknown"
INDEX 01 33:15:28
TRACK 03 AUDIO
TITLE "Precesional 3"
PERFORMER "David S. Ware Planetary Unknown"
INDEX 01 52:19:45
 
Состав
Personnel:
David S. Ware: saxophones
Cooper-Moore: piano
William Parker: bass
Muhammad Ali: drums
Any questions -> support@pro-jazz.com. По всем вопросам пишите -> support@pro-jazz.com
06:38
180
Нет комментариев. Ваш будет первым!