Вы используете незарегистрированную версию компонента "Вкладки"!

Поиск

(Free Jazz) The Heavyweights (Peter Brotzmann, Masahiko Satoh, Takeo Moriyama) - Yatagarasu - 2012, FLAC (tracks+.cue), lossless

(Free Jazz) The Heavyweights (Peter Brotzmann, Masahiko Satoh, Takeo Moriyama) - Yatagarasu - 2012, FLAC (tracks+.cue), lossless
Треклист:
The Heavyweights - Brötzmann, Satoh, Moriyama / Yatagarasu
Жанр: Free Jazz
Страна-производитель диска: Poland
Год издания: 2012
Издатель (лейбл): Not Two Records
Номер по каталогу: MW 894-2
Аудиокодек: FLAC (*.flac)
Тип рипа: tracks+.cue
Битрейт аудио: lossless
Продолжительность: 67:33
Источник (релизер): whatcd
Наличие сканов в содержимом раздачи: нет
Треклист:
1 Yatagarasu 26:20
2 Icy Spears 30:34
3 Autumn Drizzle 7:15
4 Frozen Whistle 3:24
 
Лог создания рипа
X Lossless Decoder version 20121027 (142.1)
XLD extraction logfile from 2012-12-14 00:00:02 +0400
The Heavyweights / Yatagarasu
Used drive : HL-DT-ST DVDRW GX30N (revision RP09)
Ripper mode : XLD Secure Ripper
Disable audio cache : OK for the drive with a cache less than 1375KiB
Make use of C2 pointers : NO
Read offset correction : 6
Max retry count : 20
Gap status : Analyzed, Appended
TOC of the extracted CD
Track | Start | Length | Start sector | End sector
---------------------------------------------------------
1 | 00:00:00 | 26:20:01 | 0 | 118500
2 | 26:20:01 | 30:34:27 | 118501 | 256077
3 | 56:54:28 | 07:14:43 | 256078 | 288670
4 | 64:08:71 | 03:24:08 | 288671 | 303978
AccurateRip Summary
Disc not found in AccurateRip DB.
All Tracks
Album gain : -7.70 dB
Peak : 0.970032
Statistics
Read error : 0
Jitter error (maybe fixed) : 0
Retry sector count : 0
Damaged sector count : 0
Track 01
Filename : /Users/anch/Music/FLAC/The Heavyweights - 2012 - Yatagarasu [FLAC]/01 - Yatagarasu.flac
/Users/anch/Music/FLAC/The Heavyweights - 2012 - Yatagarasu [MPR V0]/01 - Yatagarasu.mp3
Pre-gap length : 00:02:00
Track gain : -8.07 dB
Peak : 0.970032
CRC32 hash (test run) : 688A2C01
CRC32 hash : 688A2C01
CRC32 hash (skip zero) : 5AA642B3
AccurateRip v1 signature : D4DB89DB
AccurateRip v2 signature : 5369676B
->Track not present in AccurateRip database.
Statistics
Read error : 0
Jitter error (maybe fixed) : 0
Retry sector count : 0
Damaged sector count : 0
Track 02
Filename : /Users/anch/Music/FLAC/The Heavyweights - 2012 - Yatagarasu [FLAC]/02 - Icy Spears.flac
/Users/anch/Music/FLAC/The Heavyweights - 2012 - Yatagarasu [MPR V0]/02 - Icy Spears.mp3
Track gain : -7.17 dB
Peak : 0.969971
CRC32 hash (test run) : B49DABD9
CRC32 hash : B49DABD9
CRC32 hash (skip zero) : B9F609F8
AccurateRip v1 signature : 2E144135
AccurateRip v2 signature : EC0958EA
->Track not present in AccurateRip database.
Statistics
Read error : 0
Jitter error (maybe fixed) : 0
Retry sector count : 0
Damaged sector count : 0
Track 03
Filename : /Users/anch/Music/FLAC/The Heavyweights - 2012 - Yatagarasu [FLAC]/03 - Autumn Drizzle.flac
/Users/anch/Music/FLAC/The Heavyweights - 2012 - Yatagarasu [MPR V0]/03 - Autumn Drizzle.mp3
Track gain : -7.40 dB
Peak : 0.970032
CRC32 hash (test run) : C8F2B926
CRC32 hash : C8F2B926
CRC32 hash (skip zero) : 05334BF1
AccurateRip v1 signature : 09F70438
AccurateRip v2 signature : 62D037D8
->Track not present in AccurateRip database.
Statistics
Read error : 0
Jitter error (maybe fixed) : 0
Retry sector count : 0
Damaged sector count : 0
Track 04
Filename : /Users/anch/Music/FLAC/The Heavyweights - 2012 - Yatagarasu [FLAC]/04 - Frozen Whistle.flac
/Users/anch/Music/FLAC/The Heavyweights - 2012 - Yatagarasu [MPR V0]/04 - Frozen Whistle.mp3
Track gain : 2.50 dB
Peak : 0.517456
CRC32 hash (test run) : 82C031FC
CRC32 hash : 82C031FC
CRC32 hash (skip zero) : 7ECF9FB1
AccurateRip v1 signature : 38B5B985
AccurateRip v2 signature : 9534A7C2
->Track not present in AccurateRip database.
Statistics
Read error : 0
Jitter error (maybe fixed) : 0
Retry sector count : 0
Damaged sector count : 0
No errors occurred
End of status report
 
Содержание индексной карты (.CUE)
TITLE "Yatagarasu"
PERFORMER "The Heavyweights"
REM GENRE "Free Jazz"
REM DATE "2012"
REM DISCID 300FD504
REM REPLAYGAIN_ALBUM_GAIN -7.70 dB
REM REPLAYGAIN_ALBUM_PEAK 0.970032
FILE "01 - Yatagarasu.flac" WAVE
TRACK 01 AUDIO
TITLE "Yatagarasu"
REM REPLAYGAIN_TRACK_GAIN -8.07 dB
REM REPLAYGAIN_TRACK_PEAK 0.970032
INDEX 01 00:00:00
FILE "02 - Icy Spears.flac" WAVE
TRACK 02 AUDIO
TITLE "Icy Spears"
REM REPLAYGAIN_TRACK_GAIN -7.17 dB
REM REPLAYGAIN_TRACK_PEAK 0.969971
INDEX 01 00:00:00
FILE "03 - Autumn Drizzle.flac" WAVE
TRACK 03 AUDIO
TITLE "Autumn Drizzle"
REM REPLAYGAIN_TRACK_GAIN -7.40 dB
REM REPLAYGAIN_TRACK_PEAK 0.970032
INDEX 01 00:00:00
FILE "04 - Frozen Whistle.flac" WAVE
TRACK 04 AUDIO
TITLE "Frozen Whistle"
REM REPLAYGAIN_TRACK_GAIN 2.50 dB
REM REPLAYGAIN_TRACK_PEAK 0.517456
INDEX 01 00:00:00
Доп. информация: Recorded at the Manggha Hall, Krakow, Poland on November 8, 2011. Mixed on March 5, 2012 at DTS Studio.
 
Состав
Alto Saxophone, Tenor Saxophone, Tarogato, Clarinet [Bflat Clarinet] – Peter Brotzmann
Drums – Takeo Moriyama
Piano – Masahiko Satoh
Any questions -> support@pro-jazz.com. По всем вопросам пишите -> support@pro-jazz.com
06:37
200
Нет комментариев. Ваш будет первым!