Вы используете незарегистрированную версию компонента "Вкладки"!

Поиск

(Avant-Garde Jazz / Free Improvisation / Norway) Frode Gjerstad Trio (Jon Rune Strom, Paal Nilssen-Love) - Hide Out - 2012, FLAC (tracks+.cue), lossless

(Avant-Garde Jazz / Free Improvisation / Norway) Frode Gjerstad Trio (Jon Rune Strom, Paal Nilssen-Love) - Hide Out - 2012, FLAC (tracks+.cue), lossless
Треклист:
Frode Gjerstad Trio - Hide Out
Жанр: Avant-Garde Jazz / Free Improvisation
Страна-производитель диска: Norway
Год издания: 2012
Издатель (лейбл): PNL Records (private label of Paal Nilssen-Love)
Номер по каталогу: PNL015
Аудиокодек: FLAC (*.flac)
Тип рипа: tracks+.cue
Битрейт аудио: lossless
Продолжительность: 47:06
Источник (релизер): what.cd / спасибо 6060842
Наличие сканов в содержимом раздачи: нет
Треклист:
1. One Out I (28:10)
2. Two Out 2 (07:01)
3. Three Out 3 (11:57)
Доп. информация:
Musicians:
Frode Gjerstad - alto saxophone, clarinet [Bb], bass clarinet
Jon Rune Strøm - double bass
Paal Nilssen-Love - drums, percussion
Recorded live on August 31st 2011 at the Hideout, Chicago USA
Frode Gjerstad Trio - Hide Out squidco.com
Frode Gjerstad Trio - Hide Out discogs.com
Frode Gjerstad Official Site
Paal Nilssen-Love Official Site
Paal Nilssen-Love from Wikipedia, the free encyclopedia
 
... photo ...

 
Лог создания рипа
X Lossless Decoder version 20121027 (142.1)
XLD extraction logfile from 2012-12-20 10:12:26 +0400
Frode Gjerstad Trio / Hide Out
Used drive : HL-DT-ST DVDRW GX30N (revision RP09)
Ripper mode : XLD Secure Ripper
Disable audio cache : OK for the drive with a cache less than 1375KiB
Make use of C2 pointers : NO
Read offset correction : 6
Max retry count : 20
Gap status : Analyzed, Appended
TOC of the extracted CD
Track | Start | Length | Start sector | End sector
---------------------------------------------------------
1 | 00:00:00 | 28:13:01 | 0 | 126975
2 | 28:13:01 | 11:59:13 | 126976 | 180913
3 | 40:12:14 | 07:00:53 | 180914 | 212466
AccurateRip Summary
Disc not found in AccurateRip DB.
All Tracks
Album gain : -6.06 dB
Peak : 0.944214
Statistics
Read error : 0
Jitter error (maybe fixed) : 0
Retry sector count : 0
Damaged sector count : 0
Track 01
Filename : /Users/anch/Music/FLAC/Frode Gjerstad Trio - 2012 - Hide Out [FLAC]/01 - One Out 1.flac
/Users/anch/Music/FLAC/Frode Gjerstad Trio - 2012 - Hide Out [MP3 320]/01 - One Out 1.mp3
/Users/anch/Music/FLAC/Frode Gjerstad Trio - 2012 - Hide Out [MP3 V0]/01 - One Out 1.mp3
Pre-gap length : 00:02:00
Track gain : -6.46 dB
Peak : 0.944214
CRC32 hash (test run) : 599CC024
CRC32 hash : 599CC024
CRC32 hash (skip zero) : D0998862
AccurateRip v1 signature : AB4D5166
AccurateRip v2 signature : 7B6E5654
->Track not present in AccurateRip database.
Statistics
Read error : 0
Jitter error (maybe fixed) : 0
Retry sector count : 0
Damaged sector count : 0
Track 02
Filename : /Users/anch/Music/FLAC/Frode Gjerstad Trio - 2012 - Hide Out [FLAC]/02 - Two Out 2.flac
/Users/anch/Music/FLAC/Frode Gjerstad Trio - 2012 - Hide Out [MP3 320]/02 - Two Out 2.mp3
/Users/anch/Music/FLAC/Frode Gjerstad Trio - 2012 - Hide Out [MP3 V0]/02 - Two Out 2.mp3
Pre-gap length : 00:03:00
Track gain : -5.77 dB
Peak : 0.944183
CRC32 hash (test run) : B5AE2C87
CRC32 hash : B5AE2C87
CRC32 hash (skip zero) : 5CE6D3DB
AccurateRip v1 signature : FB480317
AccurateRip v2 signature : 53AA17F1
->Track not present in AccurateRip database.
Statistics
Read error : 0
Jitter error (maybe fixed) : 0
Retry sector count : 0
Damaged sector count : 0
Track 03
Filename : /Users/anch/Music/FLAC/Frode Gjerstad Trio - 2012 - Hide Out [FLAC]/03 - Three Out 3.flac
/Users/anch/Music/FLAC/Frode Gjerstad Trio - 2012 - Hide Out [MP3 320]/03 - Three Out 3.mp3
/Users/anch/Music/FLAC/Frode Gjerstad Trio - 2012 - Hide Out [MP3 V0]/03 - Three Out 3.mp3
Pre-gap length : 00:03:00
Track gain : -1.89 dB
Peak : 0.944061
CRC32 hash (test run) : 496A18A4
CRC32 hash : 496A18A4
CRC32 hash (skip zero) : 4C9C8EF3
AccurateRip v1 signature : 467833E7
AccurateRip v2 signature : D13E1B6F
->Track not present in AccurateRip database.
Statistics
Read error : 0
Jitter error (maybe fixed) : 0
Retry sector count : 0
Damaged sector count : 0
No errors occurred
End of status report
 
Содержание индексной карты (.CUE)
TITLE "Hide Out"
PERFORMER "Frode Gjerstad Trio"
REM GENRE "Free Jazz"
REM DATE "2012"
REM DISCID 220B1003
REM REPLAYGAIN_ALBUM_GAIN -6.06 dB
REM REPLAYGAIN_ALBUM_PEAK 0.944214
FILE "01 - One Out 1.flac" WAVE
TRACK 01 AUDIO
TITLE "One Out 1"
REM REPLAYGAIN_TRACK_GAIN -6.46 dB
REM REPLAYGAIN_TRACK_PEAK 0.944214
INDEX 01 00:00:00
TRACK 02 AUDIO
TITLE "Two Out 2"
REM REPLAYGAIN_TRACK_GAIN -5.77 dB
REM REPLAYGAIN_TRACK_PEAK 0.944183
INDEX 00 28:10:01
FILE "02 - Two Out 2.flac" WAVE
INDEX 01 00:00:00
TRACK 03 AUDIO
TITLE "Three Out 3"
REM REPLAYGAIN_TRACK_GAIN -1.89 dB
REM REPLAYGAIN_TRACK_PEAK 0.944061
INDEX 00 11:56:13
FILE "03 - Three Out 3.flac" WAVE
INDEX 01 00:00:00
 
auCDtect Task Manager
-----------------------
DON'T MODIFY THIS FILE
-----------------------
PERFORMER: auCDtect Task Manager, ver. 1.5.1RC6 build 1.5.1.7
Copyright (c) 2008-2010 y-soft. All rights reserved
http://y-soft.org
ANALYZER: auCDtect: CD records authenticity detector, version 0.8.2
Copyright (c) 2004 Oleg Berngardt. All rights reserved.
Copyright (c) 2004 Alexander Djourik. All rights reserved.
FILE: 03 - Three Out 3.flac
Size: 36703107 Hash: 5F09966727AE329E2763DA37C9C865B5 Accuracy: -m0
Conclusion: CDDA 100%
Signature: AFA2BF4CF31BDACC390797D0BF31272D53BA0376
FILE: 02 - Two Out 2.flac
Size: 75760736 Hash: 28EA664F537D54632BB07664658FE8B7 Accuracy: -m0
Conclusion: CDDA 100%
Signature: EFFD2DA8EF1FFFF380E325EC089BFE3EC477C1A4
FILE: 01 - One Out 1.flac
Size: 169644671 Hash: 1BD2C673A12142814870301FA73A2EBD Accuracy: -m0
Conclusion: CDDA 99%
Signature: A95FD8160E368D6FE011F41D5F1EFA04167DCDE1
... релизы с участием FRODE GJERSTAD на трекере ...
Any questions -> support@pro-jazz.com. По всем вопросам пишите -> support@pro-jazz.com
06:38
211
Нет комментариев. Ваш будет первым!