Вы используете незарегистрированную версию компонента "Вкладки"!

Поиск

(Avant-Garde Jazz, Free Improvisation) [CDR] Toshinori Kondo, Eugene Chadbourne, Andrea Centazzo - The Warriors - 1979, FLAC (tracks+.cue), lossless

Треклист:
Toshinori Kondo, Eugene Chadbourne, Andrea Centazzo / The Warriors
Жанр: Avant-Garde Jazz, Free Improvisation
Носитель: CDR
Страна-производитель диска: US
Год издания: 2007
Издатель (лейбл): Ictus Records
Номер по каталогу: ICTUS 143
Страна: US, Italy
Аудиокодек: FLAC (*.flac)
Тип рипа: tracks+.cue
Битрейт аудио: lossless
Продолжительность: 48:17
Источник (релизер): свой фирменный диск
Наличие сканов в содержимом раздачи:
Треклист:
1. The Warriors #1 6:56
2. The Warriors #2 4:51
3. The Warriors #3 1:56
4. The Warriors #4 5:32
5. The Warriors #5 3:44
6. The Warriors #6 8:47
7. The Warriors #7 5:46
8. The Warriors #8 10:14
 
Лог создания рипа
Exact Audio Copy V1.0 beta 3 from 29. August 2011
EAC extraction logfile from 17. June 2014, 23:37
Toshinori Kondo, Eugene Chadbourne, Andrea Centazzo / The Warriors
Used drive : PIONEER DVD-RW DVR-115D Adapter: 0 ID: 0
Read mode : Secure
Utilize accurate stream : Yes
Defeat audio cache : Yes
Make use of C2 pointers : No
Read offset correction : 48
Overread into Lead-In and Lead-Out : No
Fill up missing offset samples with silence : Yes
Delete leading and trailing silent blocks : No
Null samples used in CRC calculations : Yes
Used interface : Installed external ASPI interface
Gap handling : Appended to previous track
Used output format : User Defined Encoder
Selected bitrate : 896 kBit/s
Quality : High
Add ID3 tag : No
Command line compressor : C:\Program Files\Exact Audio Copy\FLAC\FLAC.EXE
Additional command line options : -6 -V -T "ARTIST=%artist%" -T "TITLE=%title%" -T "ALBUM=%albumtitle%" -T "DATE=%year%" -T "TRACKNUMBER=%tracknr%" -T "GENRE=%genre%" -T "COMMENT=%comment%" -T "BAND=%albuminterpret%" -T "COMPOSER=%composer%" %haslyrics%--tag-from-file=LYRICS="%lyricsfile%"%haslyrics% -T "DISCNUMBER=%cdnumber%" -T "TOTALDISCS=%totalcds%" -T "TOTALTRACKS=%numtracks%" %hascover%--picture="%coverfile%"%hascover% %source% -o %dest%
TOC of the extracted CD
Track | Start | Length | Start sector | End sector
---------------------------------------------------------
1 | 0:00.00 | 7:00.31 | 0 | 31530
2 | 7:00.31 | 4:55.32 | 31531 | 53687
3 | 11:55.63 | 2:00.17 | 53688 | 62704
4 | 13:56.05 | 5:36.48 | 62705 | 87952
5 | 19:32.53 | 3:48.22 | 87953 | 105074
6 | 23:21.00 | 8:51.51 | 105075 | 144950
7 | 32:12.51 | 5:50.38 | 144951 | 171238
8 | 38:03.14 | 10:14.54 | 171239 | 217342
Track 1
Filename D:\zzz\01 - The Warriors #1.wav
Pre-gap length 0:00:02.00
Peak level 100.0 %
Extraction speed 5.0 X
Track quality 100.0 %
Test CRC 0D6C5ACF
Copy CRC 0D6C5ACF
Accurately ripped (confidence 2) [E907D151] (AR v1)
Copy OK
Track 2
Filename D:\zzz\02 - The Warriors #2.wav
Peak level 95.8 %
Extraction speed 5.4 X
Track quality 100.0 %
Test CRC E6DC1AF6
Copy CRC E6DC1AF6
Accurately ripped (confidence 2) [A4AB46A1] (AR v1)
Copy OK
Track 3
Filename D:\zzz\03 - The Warriors #3.wav
Peak level 100.0 %
Extraction speed 4.9 X
Track quality 100.0 %
Test CRC C94CA077
Copy CRC C94CA077
Accurately ripped (confidence 2) [67CF5C4E] (AR v1)
Copy OK
Track 4
Filename D:\zzz\04 - The Warriors #4.wav
Peak level 92.0 %
Extraction speed 5.5 X
Track quality 99.9 %
Test CRC 1B4ABD5E
Copy CRC 1B4ABD5E
Accurately ripped (confidence 2) [0F753964] (AR v1)
Copy OK
Track 5
Filename D:\zzz\05 - The Warriors #5.wav
Peak level 100.0 %
Extraction speed 6.1 X
Track quality 100.0 %
Test CRC 7F7A00B3
Copy CRC 7F7A00B3
Accurately ripped (confidence 2) [9BB28833] (AR v1)
Copy OK
Track 6
Filename D:\zzz\06 - The Warriors #6.wav
Peak level 100.0 %
Extraction speed 7.0 X
Track quality 100.0 %
Test CRC 8C0C38CA
Copy CRC 8C0C38CA
Accurately ripped (confidence 2) [4575AD5E] (AR v1)
Copy OK
Track 7
Filename D:\zzz\07 - The Warriors #7.wav
Peak level 100.0 %
Extraction speed 7.2 X
Track quality 100.0 %
Test CRC C3A707B5
Copy CRC C3A707B5
Accurately ripped (confidence 2) [2B0A244C] (AR v1)
Copy OK
Track 8
Filename D:\zzz\08 - The Warriors #8.wav
Peak level 95.0 %
Extraction speed 8.0 X
Track quality 100.0 %
Test CRC CC52CF90
Copy CRC CC52CF90
Accurately ripped (confidence 2) [CC52CD91] (AR v1)
Copy OK
All tracks accurately ripped
No errors occurred
End of status report
==== Log checksum 215EEAAE798B01E1369BADD2FCFAC41BE392750AA650D83468DF3AD217E93BEA ====
 
Содержание индексной карты (.CUE)
REM GENRE "Free Improvisation"
REM DATE 1979
REM DISCID 630B5108
REM COMMENT "ExactAudioCopy v1.0b3"
PERFORMER "Toshinori Kondo, Eugene Chadbourne, Andrea Centazzo"
TITLE "The Warriors"
FILE "01 - The Warriors #1.wav" WAVE
TRACK 01 AUDIO
TITLE "The Warriors #1"
PERFORMER "Toshinori Kondo, Eugene Chadbourne, Andrea Centazzo"
INDEX 01 00:00:00
FILE "02 - The Warriors #2.wav" WAVE
TRACK 02 AUDIO
TITLE "The Warriors #2"
PERFORMER "Toshinori Kondo, Eugene Chadbourne, Andrea Centazzo"
INDEX 01 00:00:00
FILE "03 - The Warriors #3.wav" WAVE
TRACK 03 AUDIO
TITLE "The Warriors #3"
PERFORMER "Toshinori Kondo, Eugene Chadbourne, Andrea Centazzo"
INDEX 01 00:00:00
FILE "04 - The Warriors #4.wav" WAVE
TRACK 04 AUDIO
TITLE "The Warriors #4"
PERFORMER "Toshinori Kondo, Eugene Chadbourne, Andrea Centazzo"
INDEX 01 00:00:00
FILE "05 - The Warriors #5.wav" WAVE
TRACK 05 AUDIO
TITLE "The Warriors #5"
PERFORMER "Toshinori Kondo, Eugene Chadbourne, Andrea Centazzo"
INDEX 01 00:00:00
FILE "06 - The Warriors #6.wav" WAVE
TRACK 06 AUDIO
TITLE "The Warriors #6"
PERFORMER "Toshinori Kondo, Eugene Chadbourne, Andrea Centazzo"
INDEX 01 00:00:00
FILE "07 - The Warriors #7.wav" WAVE
TRACK 07 AUDIO
TITLE "The Warriors #7"
PERFORMER "Toshinori Kondo, Eugene Chadbourne, Andrea Centazzo"
INDEX 01 00:00:00
FILE "08 - The Warriors #8.wav" WAVE
TRACK 08 AUDIO
TITLE "The Warriors #8"
PERFORMER "Toshinori Kondo, Eugene Chadbourne, Andrea Centazzo"
INDEX 01 00:00:00
 
Лог проверки качества
d:\>d:\aucdtect -d/-m0 d:\zzz\*.wav
auCDtect: CD records authenticity detector, version 0.8.2
Copyright (c) 2004 Oleg Berngardt. All rights reserved.
Copyright (c) 2004 Alexander Djourik. All rights reserved.
------------------------------------------------------------
Processing file: [01. The Warriors #1.wav]
------------------------------------------------------------
This track looks like CDDA with probability 100%
------------------------------------------------------------
Processing file: [02. The Warriors #2.wav]
------------------------------------------------------------
This track looks like CDDA with probability 99%
------------------------------------------------------------
Processing file: [03. The Warriors #3.wav]
------------------------------------------------------------
This track looks like CDDA with probability 100%
------------------------------------------------------------
Processing file: [04. The Warriors #4.wav]
------------------------------------------------------------
This track looks like CDDA with probability 100%
------------------------------------------------------------
Processing file: [05. The Warriors #5.wav]
------------------------------------------------------------
This track looks like CDDA with probability 100%
------------------------------------------------------------
Processing file: [06. The Warriors #6.wav]
------------------------------------------------------------
This track looks like CDDA with probability 100%
------------------------------------------------------------
Processing file: [07. The Warriors #7.wav]
------------------------------------------------------------
This track looks like CDDA with probability 100%
------------------------------------------------------------
Processing file: [08. The Warriors #8.wav]
------------------------------------------------------------
This track looks like CDDA with probability 100%
------------------------------------------------------------
Final Conclusion:
------------------------------------------------------------
These tracks looks like CDDA with probability 100%
Доп. информация:
 
Album Info & AAJ Review
Recorded at Teatro del Bibiena, Bologna, Italy, April 1979
Digitally re-mastered, edited and produced in LA by Andrea Centazzo, 2007
Liner notes: Eugene Chadbourne 1978/79
The title of this one's misleading, as this is music made by unconditional collaborationists as opposed to anyone of a more aggressive disposition. The results of their collaboration embodies that old saying about the meeting of minds, and the results are the outcome of a highly refined group sensibility that was evidently defined by the trio's experience as a working group.
With the exception of "The Warriors #8," no individual track breaches the ten minute mark, and in a sense that situation lends the music an air of immediacy that might not otherwise have been the case. The one minute and fifty six seconds of "The Warriors #3, for example, is made up from small sounds seemingly teetering on the brink of hyperactivity, only for the whole to be curtailed in disorienting fashion.
The issue of deployment is, perhaps, one of the most important. Toshinori Kondo's trumpet playing is highly personal and acutely responsive on "The Warriors #4," at the same time as it seemingly has little in common even with the work of, say, Wadada Leo Smith. More significantly still, he doesn't assume the role of anything as hackneyed as a lead voice.
On the issue of responsiveness, the same can be said for Andrea Centazzo's percussion work, the precedents for which would appear to be oblique at best. It's clear however that he might have influenced the work of a musician like Gino Robair in his acute sensitivity to color and nuance, as is evident on "The Warriors #5.
Eugene Chadbourne's free aesthetic is obvious here even though this music was captured over thirty years ago. In the intervening period it's clear that he's refined it in the way of the true artist, whilst at the time he was already clearly deeply committed to the possibilities free playing had to offer. To hear him on "The Warriors #7 is to hear the work of a musician in thrall to no mentor, not even the arguably overriding figure of Derek Bailey in terms of the guitar's role in music fashioned so immediately in the moment. Suffice to say that the adage concerning the sound of surprise applies here in abundance.
The same is true of the transitory nature of so much music. In that respect, at least, this disc denies the air where so much of it ends up and those with the ears can accordingly reap the rewards.
 
Состав
Toshinori Kondo: trumpet, horns
Eugene Chadbourne: guitars
Andrea Centazzo: percussion & synt.
По всем вопросам пишите личное сообщение пользователю M0p94ok.
03:49
161
Нет комментариев. Ваш будет первым!