Вы используете незарегистрированную версию компонента "Вкладки"!

Поиск

(Avant-Garde Jazz, Free Improvisation, FMR) [CD] Red Dhal Sextet (Hilary Jeffery, Paul Dunmall, Frank Paul Schubert, Alexander Von Schlippenbach, Mike Majkowski, Yorgos Dimitriadis) - Red Dhal Sextet - 2013, FLAC (tracks+.cue), lossless

(Avant-Garde Jazz, Free Improvisation, FMR) [CD] Red Dhal Sextet (Hilary Jeffery, Paul Dunmall, Frank Paul Schubert, Alexander Von Schlippenbach, Mike Majkowski, Yorgos Dimitriadis) - Red Dhal Sextet - 2013, FLAC (tracks+.cue), lossless
Треклист:
Red Dhal Sextet / Red Dhal Sextet
Жанр: Avant-Garde Jazz, Free Improvisation, FMR
Носитель: CD
Страна-производитель диска: UK
Год издания: 2013
Издатель (лейбл): FMR Records
Номер по каталогу: FMRCD364-1014
Страна: UK, Germany
Аудиокодек: FLAC (*.flac)
Тип рипа: tracks+.cue
Битрейт аудио: lossless
Продолжительность: 58:33
Источник (релизер): свой фирменный диск
Наличие сканов в содержимом раздачи:
Треклист:
1. White Dhal
2. Orange Dhal
3. Purple Dhal
4. Red Dhal
5. Turquoise Dhal
6. Scarlet Dhal
 
Лог создания рипа
Exact Audio Copy V1.0 beta 3 from 29. August 2011
EAC extraction logfile from 31. May 2014, 19:59
Red Dhal Sextet / Red Dhal Sextet
Used drive : PIONEER DVD-RW DVR-115D Adapter: 0 ID: 0
Read mode : Secure
Utilize accurate stream : Yes
Defeat audio cache : Yes
Make use of C2 pointers : No
Read offset correction : 48
Overread into Lead-In and Lead-Out : No
Fill up missing offset samples with silence : Yes
Delete leading and trailing silent blocks : No
Null samples used in CRC calculations : Yes
Used interface : Installed external ASPI interface
Gap handling : Appended to previous track
Used output format : User Defined Encoder
Selected bitrate : 896 kBit/s
Quality : High
Add ID3 tag : No
Command line compressor : C:\Program Files\Exact Audio Copy\FLAC\FLAC.EXE
Additional command line options : -6 -V -T "ARTIST=%artist%" -T "TITLE=%title%" -T "ALBUM=%albumtitle%" -T "DATE=%year%" -T "TRACKNUMBER=%tracknr%" -T "GENRE=%genre%" -T "COMMENT=%comment%" -T "BAND=%albuminterpret%" -T "COMPOSER=%composer%" %haslyrics%--tag-from-file=LYRICS="%lyricsfile%"%haslyrics% -T "DISCNUMBER=%cdnumber%" -T "TOTALDISCS=%totalcds%" -T "TOTALTRACKS=%numtracks%" %hascover%--picture="%coverfile%"%hascover% %source% -o %dest%
TOC of the extracted CD
Track | Start | Length | Start sector | End sector
---------------------------------------------------------
1 | 0:00.00 | 9:36.07 | 0 | 43206
2 | 9:36.07 | 3:48.68 | 43207 | 60374
3 | 13:25.00 | 8:30.06 | 60375 | 98630
4 | 21:55.06 | 15:12.70 | 98631 | 167100
5 | 37:08.01 | 8:14.00 | 167101 | 204150
6 | 45:22.01 | 13:11.19 | 204151 | 263494
Track 1
Filename D:\zzz\01 - White Dhal.wav
Pre-gap length 0:00:02.00
Peak level 98.9 %
Extraction speed 5.3 X
Track quality 100.0 %
Test CRC E3BAA62C
Copy CRC E3BAA62C
Track not present in AccurateRip database
Copy OK
Track 2
Filename D:\zzz\02 - Orange Dhal.wav
Peak level 99.0 %
Extraction speed 5.5 X
Track quality 100.0 %
Test CRC 56DC6B48
Copy CRC 56DC6B48
Track not present in AccurateRip database
Copy OK
Track 3
Filename D:\zzz\03 - Purple Dhal.wav
Peak level 99.3 %
Extraction speed 6.5 X
Track quality 100.0 %
Test CRC 19ACE5A3
Copy CRC 19ACE5A3
Track not present in AccurateRip database
Copy OK
Track 4
Filename D:\zzz\04 - Red Dhal.wav
Peak level 99.1 %
Extraction speed 7.6 X
Track quality 100.0 %
Test CRC F6039662
Copy CRC F6039662
Track not present in AccurateRip database
Copy OK
Track 5
Filename D:\zzz\05 - Turquoise Dhal.wav
Peak level 69.1 %
Extraction speed 7.6 X
Track quality 99.9 %
Test CRC 903AA74A
Copy CRC 903AA74A
Track not present in AccurateRip database
Copy OK
Track 6
Filename D:\zzz\06 - Scarlet Dhal.wav
Peak level 99.3 %
Extraction speed 9.0 X
Track quality 100.0 %
Test CRC 0AD76477
Copy CRC 0AD76477
Track not present in AccurateRip database
Copy OK
None of the tracks are present in the AccurateRip database
No errors occurred
End of status report
==== Log checksum 2BC61CA2D695FA8D14C76F8A57369FEFB0A0628E458A31E12FA0C3D5F0FE36DB ====
 
Содержание индексной карты (.CUE)
REM GENRE "Free Improvisation"
REM DATE 2013
REM DISCID 470DB906
REM COMMENT "ExactAudioCopy v1.0b3"
PERFORMER "Red Dhal Sextet"
TITLE "Red Dhal Sextet"
FILE "01 - White Dhal.wav" WAVE
TRACK 01 AUDIO
TITLE "White Dhal"
PERFORMER "Red Dhal Sextet"
INDEX 01 00:00:00
FILE "02 - Orange Dhal.wav" WAVE
TRACK 02 AUDIO
TITLE "Orange Dhal"
PERFORMER "Red Dhal Sextet"
INDEX 01 00:00:00
FILE "03 - Purple Dhal.wav" WAVE
TRACK 03 AUDIO
TITLE "Purple Dhal"
PERFORMER "Red Dhal Sextet"
INDEX 01 00:00:00
FILE "04 - Red Dhal.wav" WAVE
TRACK 04 AUDIO
TITLE "Red Dhal"
PERFORMER "Red Dhal Sextet"
INDEX 01 00:00:00
FILE "05 - Turquoise Dhal.wav" WAVE
TRACK 05 AUDIO
TITLE "Turquoise Dhal"
PERFORMER "Red Dhal Sextet"
INDEX 01 00:00:00
FILE "06 - Scarlet Dhal.wav" WAVE
TRACK 06 AUDIO
TITLE "Scarlet Dhal"
PERFORMER "Red Dhal Sextet"
INDEX 01 00:00:00
 
Лог проверки качества
d:\>d:\aucdtect -d/-m0 d:\zzz\*.wav
auCDtect: CD records authenticity detector, version 0.8.2
Copyright (c) 2004 Oleg Berngardt. All rights reserved.
Copyright (c) 2004 Alexander Djourik. All rights reserved.
------------------------------------------------------------
Processing file: [01. White Dhal.wav]
------------------------------------------------------------
This track looks like CDDA with probability 100%
------------------------------------------------------------
Processing file: [02. Orange Dhal.wav]
------------------------------------------------------------
This track looks like CDDA with probability 99%
------------------------------------------------------------
Processing file: [03. Purple Dhal.wav]
------------------------------------------------------------
This track looks like CDDA with probability 100%
------------------------------------------------------------
Processing file: [04. Red Dhal.wav]
------------------------------------------------------------
This track looks like CDDA with probability 100%
------------------------------------------------------------
Processing file: [05. Turquoise Dhal.wav]
------------------------------------------------------------
This track looks like CDDA with probability 100%
------------------------------------------------------------
Processing file: [06. Scarlet Dhal.wav]
------------------------------------------------------------
This track looks like CDDA with probability 100%
------------------------------------------------------------
Final Conclusion:
------------------------------------------------------------
These tracks looks like CDDA with probability 100%
Доп. информация:
 
Album Info
Recorded on 19 September 2011 by Roy Carroll at studioboerne45, Berlin-Weissensee
Mixed and mastered by Danny O'Really at The Miles Room, Berlin
All music by Jeffery/Schubert/Dunmall/Schlippenbach/Majkowski/Dimitriadis
Photos by Viola Forster von der Luhe
Thanks to Alexander Frangenheim. Very special thanks to Klaus Kurvers.
Superbly recorded in Berlin, the detail on each recording can be clearly heard, as the tracks build from delicate diaog to intense interaction. Each track names a color of Dhal, the Indian word for lentils, though the reference is left to the imagination of the listener. Lentils or no, this is an excellent example of modern playing and is highly recommended! - FMR
 
Состав
Hilary Jeffery: trombone
Frank Paul Schubert: alto saxophone
Paul Dunmall: tenor saxophone
Alexander von Schlippenbach: piano
Mike Majkowski: bass
Yorgos Dimitriadis: drums, percussion
По всем вопросам пишите личное сообщение пользователю M0p94ok.
03:48
174
Нет комментариев. Ваш будет первым!