Вы используете незарегистрированную версию компонента "Вкладки"!

Поиск

(Avant-Garde Jazz, Free Jazz, Not Two Records) [CD] Szilard Mezei - Mint Amikor Tavasz - 2009, FLAC (tracks+.cue), lossless

(Avant-Garde Jazz, Free Jazz, Not Two Records) [CD] Szilard Mezei - Mint Amikor Tavasz - 2009, FLAC (tracks+.cue), lossless
Треклист:
Szilard Mezei / Mint Amikor Tavasz
Жанр: Avant-Garde Jazz, Free Jazz, Not Two Records
Носитель: CD
Страна-производитель диска: Poland
Год издания: 2009
Издатель (лейбл): Not Two Records
Номер по каталогу: MW 819-2
Страна: Serbia
Аудиокодек: FLAC (*.flac)
Тип рипа: tracks+.cue
Битрейт аудио: lossless
Продолжительность: 76:22
Источник (релизер): свой фирменный диск
Наличие сканов в содержимом раздачи:
Треклист:
1. No / So 5:44
2. [symbol] 6:40
3. Bolondut / Road Of Fool 12:23
4. Bolondut Kek / Road Of Fool Blue 6:44
5. [symbol] 4:27
6. [symbol] 5:37
7. [symbol] 5:25
8. [symbol] 2:04
9. Hetret / Seven Fields 1:55
10. Cougar 8:09
11. [symbol] 1 2:02
12. [symbol] 2 3:06
13. [symbol] 3 1:37
14. Mint Amikor Tavasz / When Spring 5:50
15. [symbol] 4:51
 
Лог создания рипа
Exact Audio Copy V1.0 beta 3 from 29. August 2011
EAC extraction logfile from 18. June 2014, 20:38
Szilard Mezei / Mint Amikor Tavasz
Used drive : PIONEER DVD-RW DVR-115D Adapter: 0 ID: 0
Read mode : Secure
Utilize accurate stream : Yes
Defeat audio cache : Yes
Make use of C2 pointers : No
Read offset correction : 48
Overread into Lead-In and Lead-Out : No
Fill up missing offset samples with silence : Yes
Delete leading and trailing silent blocks : No
Null samples used in CRC calculations : Yes
Used interface : Installed external ASPI interface
Gap handling : Appended to previous track
Used output format : User Defined Encoder
Selected bitrate : 896 kBit/s
Quality : High
Add ID3 tag : No
Command line compressor : C:\Program Files\Exact Audio Copy\FLAC\FLAC.EXE
Additional command line options : -6 -V -T "ARTIST=%artist%" -T "TITLE=%title%" -T "ALBUM=%albumtitle%" -T "DATE=%year%" -T "TRACKNUMBER=%tracknr%" -T "GENRE=%genre%" -T "COMMENT=%comment%" -T "BAND=%albuminterpret%" -T "COMPOSER=%composer%" %haslyrics%--tag-from-file=LYRICS="%lyricsfile%"%haslyrics% -T "DISCNUMBER=%cdnumber%" -T "TOTALDISCS=%totalcds%" -T "TOTALTRACKS=%numtracks%" %hascover%--picture="%coverfile%"%hascover% %source% -o %dest%
TOC of the extracted CD
Track | Start | Length | Start sector | End sector
---------------------------------------------------------
1 | 0:00.00 | 5:40.24 | 0 | 25523
2 | 5:40.24 | 6:33.33 | 25524 | 55031
3 | 12:13.57 | 12:23.03 | 55032 | 110759
4 | 24:36.60 | 6:44.43 | 110760 | 141102
5 | 31:21.28 | 4:25.41 | 141103 | 161018
6 | 35:46.69 | 5:34.25 | 161019 | 186093
7 | 41:21.19 | 5:25.30 | 186094 | 210498
8 | 46:46.49 | 2:04.10 | 210499 | 219808
9 | 48:50.59 | 1:55.61 | 219809 | 228494
10 | 50:46.45 | 8:07.17 | 228495 | 265036
11 | 58:53.62 | 2:02.30 | 265037 | 274216
12 | 60:56.17 | 3:07.07 | 274217 | 288248
13 | 64:03.24 | 1:36.73 | 288249 | 295521
14 | 65:40.22 | 5:50.35 | 295522 | 321806
15 | 71:30.57 | 4:51.32 | 321807 | 343663
Track 1
Filename D:\zzz\01 - No , So.wav
Pre-gap length 0:00:02.00
Peak level 92.8 %
Extraction speed 2.9 X
Track quality 100.0 %
Test CRC 62968B87
Copy CRC 62968B87
Track not present in AccurateRip database
Copy OK
Track 2
Filename D:\zzz\02 - [symbol].wav
Peak level 91.6 %
Extraction speed 3.4 X
Track quality 100.0 %
Test CRC 0A2A8DEC
Copy CRC 0A2A8DEC
Track not present in AccurateRip database
Copy OK
Track 3
Filename D:\zzz\03 - Bolondut , Road Of Fool.wav
Peak level 93.5 %
Extraction speed 3.9 X
Track quality 99.9 %
Test CRC 499B522E
Copy CRC 499B522E
Track not present in AccurateRip database
Copy OK
Track 4
Filename D:\zzz\04 - Bolondut Kek , Road Of Fool Blue.wav
Peak level 96.9 %
Extraction speed 4.3 X
Track quality 100.0 %
Test CRC 439008D3
Copy CRC 439008D3
Track not present in AccurateRip database
Copy OK
Track 5
Filename D:\zzz\05 - [symbol].wav
Peak level 91.4 %
Extraction speed 3.9 X
Track quality 100.0 %
Test CRC 5A4E676B
Copy CRC 5A4E676B
Track not present in AccurateRip database
Copy OK
Track 6
Filename D:\zzz\06 - [symbol].wav
Peak level 97.7 %
Extraction speed 4.2 X
Track quality 99.9 %
Test CRC DBB16A02
Copy CRC DBB16A02
Track not present in AccurateRip database
Copy OK
Track 7
Filename D:\zzz\07 - [symbol].wav
Peak level 96.9 %
Extraction speed 4.9 X
Track quality 100.0 %
Test CRC 594952D3
Copy CRC 594952D3
Track not present in AccurateRip database
Copy OK
Track 8
Filename D:\zzz\08 - [symbol].wav
Peak level 95.7 %
Extraction speed 3.5 X
Track quality 99.9 %
Test CRC 4D1DE66A
Copy CRC 4D1DE66A
Track not present in AccurateRip database
Copy OK
Track 9
Filename D:\zzz\09 - Hetret , Seven Fields.wav
Peak level 93.6 %
Extraction speed 4.2 X
Track quality 100.0 %
Test CRC 54E24A6F
Copy CRC 54E24A6F
Track not present in AccurateRip database
Copy OK
Track 10
Filename D:\zzz\10 - Cougar.wav
Peak level 95.2 %
Extraction speed 5.4 X
Track quality 100.0 %
Test CRC 7AE5F05F
Copy CRC 7AE5F05F
Track not present in AccurateRip database
Copy OK
Track 11
Filename D:\zzz\11 - [symbol] 1.wav
Peak level 96.1 %
Extraction speed 4.6 X
Track quality 100.0 %
Test CRC 6928C8A1
Copy CRC 6928C8A1
Track not present in AccurateRip database
Copy OK
Track 12
Filename D:\zzz\12 - [symbol] 2.wav
Peak level 83.2 %
Extraction speed 5.1 X
Track quality 100.0 %
Test CRC CA301201
Copy CRC CA301201
Track not present in AccurateRip database
Copy OK
Track 13
Filename D:\zzz\13 - [symbol] 3.wav
Peak level 87.1 %
Extraction speed 4.4 X
Track quality 100.0 %
Test CRC 836F39FB
Copy CRC 836F39FB
Track not present in AccurateRip database
Copy OK
Track 14
Filename D:\zzz\14 - Mint Amikor Tavasz , When Spring.wav
Peak level 95.3 %
Extraction speed 5.7 X
Track quality 100.0 %
Test CRC 5F2D1F11
Copy CRC 5F2D1F11
Track not present in AccurateRip database
Copy OK
Track 15
Filename D:\zzz\15 - [symbol].wav
Peak level 96.1 %
Extraction speed 5.8 X
Track quality 100.0 %
Test CRC D8C39EFC
Copy CRC D8C39EFC
Track not present in AccurateRip database
Copy OK
None of the tracks are present in the AccurateRip database
No errors occurred
End of status report
==== Log checksum 9A4230E281CA3856A99A4FF7CB8D6A1E1F7BAB8C5B53535BA144AB8A91EB3DFE ====
 
Содержание индексной карты (.CUE)
REM GENRE "Avant-Garde Jazz"
REM DATE 2009
REM DISCID F011E60F
REM COMMENT "ExactAudioCopy v1.0b3"
PERFORMER "Szilard Mezei"
TITLE "Mint Amikor Tavasz"
FILE "01 - No , So.wav" WAVE
TRACK 01 AUDIO
TITLE "No / So"
PERFORMER "Szilard Mezei"
INDEX 01 00:00:00
FILE "02 - [symbol].wav" WAVE
TRACK 02 AUDIO
TITLE "[symbol]"
PERFORMER "Szilard Mezei"
INDEX 01 00:00:00
FILE "03 - Bolondut , Road Of Fool.wav" WAVE
TRACK 03 AUDIO
TITLE "Bolondut / Road Of Fool"
PERFORMER "Szilard Mezei"
INDEX 01 00:00:00
FILE "04 - Bolondut Kek , Road Of Fool Blue.wav" WAVE
TRACK 04 AUDIO
TITLE "Bolondut Kek / Road Of Fool Blue"
PERFORMER "Szilard Mezei"
INDEX 01 00:00:00
FILE "05 - [symbol].wav" WAVE
TRACK 05 AUDIO
TITLE "[symbol]"
PERFORMER "Szilard Mezei"
INDEX 01 00:00:00
FILE "06 - [symbol].wav" WAVE
TRACK 06 AUDIO
TITLE "[symbol]"
PERFORMER "Szilard Mezei"
INDEX 01 00:00:00
FILE "07 - [symbol].wav" WAVE
TRACK 07 AUDIO
TITLE "[symbol]"
PERFORMER "Szilard Mezei"
INDEX 01 00:00:00
FILE "08 - [symbol].wav" WAVE
TRACK 08 AUDIO
TITLE "[symbol]"
PERFORMER "Szilard Mezei"
INDEX 01 00:00:00
FILE "09 - Hetret , Seven Fields.wav" WAVE
TRACK 09 AUDIO
TITLE "Hetret / Seven Fields"
PERFORMER "Szilard Mezei"
INDEX 01 00:00:00
FILE "10 - Cougar.wav" WAVE
TRACK 10 AUDIO
TITLE "Cougar"
PERFORMER "Szilard Mezei"
INDEX 01 00:00:00
FILE "11 - [symbol] 1.wav" WAVE
TRACK 11 AUDIO
TITLE "[symbol] 1"
PERFORMER "Szilard Mezei"
INDEX 01 00:00:00
FILE "12 - [symbol] 2.wav" WAVE
TRACK 12 AUDIO
TITLE "[symbol] 2"
PERFORMER "Szilard Mezei"
INDEX 01 00:00:00
FILE "13 - [symbol] 3.wav" WAVE
TRACK 13 AUDIO
TITLE "[symbol] 3"
PERFORMER "Szilard Mezei"
INDEX 01 00:00:00
FILE "14 - Mint Amikor Tavasz , When Spring.wav" WAVE
TRACK 14 AUDIO
TITLE "Mint Amikor Tavasz / When Spring"
PERFORMER "Szilard Mezei"
INDEX 01 00:00:00
FILE "15 - [symbol].wav" WAVE
TRACK 15 AUDIO
TITLE "[symbol]"
PERFORMER "Szilard Mezei"
INDEX 01 00:00:00
 
Лог проверки качества
d:\>d:\aucdtect -d/-m0 d:\zzz\*.wav
auCDtect: CD records authenticity detector, version 0.8.2
Copyright (c) 2004 Oleg Berngardt. All rights reserved.
Copyright (c) 2004 Alexander Djourik. All rights reserved.
------------------------------------------------------------
Processing file: [01. No - So.wav]
------------------------------------------------------------
This track looks like CDDA with probability 100%
------------------------------------------------------------
Processing file: [02. [symbol].wav]
------------------------------------------------------------
This track looks like CDDA with probability 100%
------------------------------------------------------------
Processing file: [03. Bolondut - Road Of Fool.wav]
------------------------------------------------------------
This track looks like CDDA with probability 100%
------------------------------------------------------------
Processing file: [04. Bolondut Kek - Road Of Fool Blue.wav]
------------------------------------------------------------
This track looks like CDDA with probability 100%
------------------------------------------------------------
Processing file: [05. [symbol].wav]
------------------------------------------------------------
This track looks like CDDA with probability 100%
------------------------------------------------------------
Processing file: [06. [symbol].wav]
------------------------------------------------------------
This track looks like CDDA with probability 100%
------------------------------------------------------------
Processing file: [07. [symbol].wav]
------------------------------------------------------------
This track looks like CDDA with probability 100%
------------------------------------------------------------
Processing file: [08. [symbol].wav]
------------------------------------------------------------
This track looks like CDDA with probability 100%
------------------------------------------------------------
Processing file: [09. Hetret - Seven Fields.wav]
------------------------------------------------------------
This track looks like CDDA with probability 100%
------------------------------------------------------------
Processing file: [10. Cougar.wav]
------------------------------------------------------------
This track looks like CDDA with probability 100%
------------------------------------------------------------
Processing file: [11. [symbol] 1.wav]
------------------------------------------------------------
This track looks like CDDA with probability 100%
------------------------------------------------------------
Processing file: [12. [symbol] 2.wav]
------------------------------------------------------------
This track looks like CDDA with probability 100%
------------------------------------------------------------
Processing file: [13. [symbol] 3.wav]
------------------------------------------------------------
This track looks like CDDA with probability 100%
------------------------------------------------------------
Processing file: [14. Mint Amikor Tavasz - When Spring.wav]
------------------------------------------------------------
This track looks like CDDA with probability 100%
------------------------------------------------------------
Processing file: [15. [symbol].wav]
------------------------------------------------------------
This track looks like CDDA with probability 100%
------------------------------------------------------------
Final Conclusion:
------------------------------------------------------------
These tracks looks like CDDA with probability 100%
Доп. информация:
 
Album Info & M-etropolis.com Review
Compositions by Szilard Mezei
Viola: Jozsef Magyar, Budapest, 2003
Cover painting by Erno Sagmeister, graphic work by Erzsebet Mezei, cover design by Imre Sebestyen, Jr.
Rec. May 2005, Vamosszabadi 'Mindszentek' Church, by Kapui Szabolcs, Gyorfree
Sponsored by: Varszegi Tibor es Tarsulata / Tibor Varszegi Theatre Company
Poem: 'Visszavonas' by Koncz Istvan
In so many cases a solo recording are incredibly difficult to listen to, quite often presenting none any actual music but demonstration of skills. And while there’s no lack of virtuosity here, this is not a record just for other viola/violin players nor an exercise in technique. Between the legato, gentle playing of the “Not / So” that begins the record and sharp and staccato shattered sound of the second track (some of the pieces instead of a title have a simple picture) this promise you a lot of diversity from the beginning and it delivers.My definite favourite is “Bolondut / Road of Fool”,also the longest track of the cd, with its folkish short motif serving as a recurring theme, platform extended through sensitive and imaginative improvisation. The sound of viola is crystal clear, bare, right in front of ears.”Bolondut kek / Road of Fool Blue” is one of the few pieces played on double bass, deep and magnificient sound of arco and once again with a simple recurring motiv, ending with a great use of extended techniques, surprisingly fitting for the folk atmosphere.
In the cycle of picture tracks that follows Szilard plays viola in deconstuctive way of Joe Morris guitar (track 5), pierces the air with light-speed arpeggios and dramatic harmonies of gypsy descendance (track 6) and provides the balance going way low on double bass again , this time without the bow (track 7).Tracks 8 through 13 (except 8 minutes, double bass track 10) are minitures, all around 2 mins long. Short outbursts of creative flame, from the long frullo (track 8), through passionate wild shrills (track 9 and 11), otherwordly misty, full of air and microtonal distortions sound (track 12) up to somehow combining last two in the track 13. The cd ends with one track apiece on viola, exploring more romantic territory, and the bass, with nice walking technique, somehow a jumpy twist to the melody.
I guess at 70 something minutes overall, this is not exactly an easy listening, still a solo viola album (excluding the four bass tracks) is extremely uncommon. (I don’t know any other) and as ambitious as it is, it succeds greatly. On the final note. Happy Birthday to Szilard who was born on the 12th of february. — jazzowy alchemik | 11.02.2011.
 
Состав
Szilard Mezei: viola, double bass
По всем вопросам пишите личное сообщение пользователю M0p94ok.
03:49
150
Нет комментариев. Ваш будет первым!