Вы используете незарегистрированную версию компонента "Вкладки"!

Поиск

(Avant-Garde Jazz, Free Improvisation) [CDR] The Ken Silverman Septet (feat. Roy Campbell) - From Emptiness - 2011, FLAC (tracks+.cue), lossless

(Avant-Garde Jazz, Free Improvisation) [CDR] The Ken Silverman Septet (feat. Roy Campbell) - From Emptiness - 2011, FLAC (tracks+.cue), lossless
Треклист:
The Ken Silverman Septet / From Emptiness
Жанр: Avant-Garde Jazz, Free Improvisation
Носитель: CDR
Страна-производитель диска: US
Год издания: 2011
Издатель (лейбл): SoundSeer CD-R
Номер по каталогу: S1001
Страна: US
Аудиокодек: FLAC (*.flac)
Тип рипа: tracks+.cue
Битрейт аудио: lossless
Продолжительность: 58:40
Источник (релизер): свой фирменный диск
Наличие сканов в содержимом раздачи:
Треклист:
1. From 22:03
2. Empti 6:27
3. Ness 4:28
4. Thought 7:56
5. And Emo 13:48
6. Tion 2:34
7. From (Reprise) 1:12
 
Лог создания рипа
Exact Audio Copy V1.0 beta 3 from 29. August 2011
EAC extraction logfile from 30. December 2013, 20:28
The Ken Silverman Septet / From Emptiness
Used drive : PIONEER DVD-RW DVR-115D Adapter: 0 ID: 0
Read mode : Secure
Utilize accurate stream : Yes
Defeat audio cache : Yes
Make use of C2 pointers : No
Read offset correction : 48
Overread into Lead-In and Lead-Out : No
Fill up missing offset samples with silence : Yes
Delete leading and trailing silent blocks : No
Null samples used in CRC calculations : Yes
Used interface : Installed external ASPI interface
Gap handling : Appended to previous track
Used output format : User Defined Encoder
Selected bitrate : 896 kBit/s
Quality : High
Add ID3 tag : No
Command line compressor : C:\Program Files\Exact Audio Copy\FLAC\FLAC.EXE
Additional command line options : -6 -V -T "ARTIST=%artist%" -T "TITLE=%title%" -T "ALBUM=%albumtitle%" -T "DATE=%year%" -T "TRACKNUMBER=%tracknr%" -T "GENRE=%genre%" -T "COMMENT=%comment%" -T "BAND=%albuminterpret%" -T "COMPOSER=%composer%" %haslyrics%--tag-from-file=LYRICS="%lyricsfile%"%haslyrics% -T "DISCNUMBER=%cdnumber%" -T "TOTALDISCS=%totalcds%" -T "TOTALTRACKS=%numtracks%" %hascover%--picture="%coverfile%"%hascover% %source% -o %dest%
TOC of the extracted CD
Track | Start | Length | Start sector | End sector
---------------------------------------------------------
1 | 0:00.00 | 22:03.47 | 0 | 99271
2 | 22:03.47 | 6:27.35 | 99272 | 128331
3 | 28:31.07 | 4:28.03 | 128332 | 148434
4 | 32:59.10 | 7:56.57 | 148435 | 184191
5 | 40:55.67 | 13:48.74 | 184192 | 246365
6 | 54:44.66 | 2:42.64 | 246366 | 258579
7 | 57:27.55 | 1:12.62 | 258580 | 264041
Track 1
Filename D:\zzz\01 - From.wav
Pre-gap length 0:00:02.00
Peak level 99.9 %
Extraction speed 5.9 X
Track quality 100.0 %
Test CRC 7DC643FA
Copy CRC 7DC643FA
Accurately ripped (confidence 1) [B877AB25] (AR v2)
Copy OK
Track 2
Filename D:\zzz\02 - Empti.wav
Peak level 99.9 %
Extraction speed 6.6 X
Track quality 100.0 %
Test CRC EC425F9C
Copy CRC EC425F9C
Accurately ripped (confidence 1) [3B9AF3CC] (AR v2)
Copy OK
Track 3
Filename D:\zzz\03 - Ness.wav
Peak level 79.4 %
Extraction speed 4.0 X
Track quality 99.8 %
Test CRC B34D56FC
Copy CRC B34D56FC
Accurately ripped (confidence 1) [EB768769] (AR v2)
Copy OK
Track 4
Filename D:\zzz\04 - Thought.wav
Peak level 99.9 %
Extraction speed 6.9 X
Track quality 99.9 %
Test CRC AB83B470
Copy CRC AB83B470
Accurately ripped (confidence 1) [3A020583] (AR v2)
Copy OK
Track 5
Filename D:\zzz\05 - And Emo.wav
Peak level 100.0 %
Extraction speed 8.0 X
Track quality 99.9 %
Test CRC BBF6C40A
Copy CRC BBF6C40A
Accurately ripped (confidence 1) [E15488A4] (AR v2)
Copy OK
Track 6
Filename D:\zzz\06 - Tion.wav
Peak level 99.9 %
Extraction speed 7.4 X
Track quality 100.0 %
Test CRC F2048A7E
Copy CRC F2048A7E
Accurately ripped (confidence 1) [872933EF] (AR v2)
Copy OK
Track 7
Filename D:\zzz\07 - From (Reprise).wav
Peak level 18.0 %
Extraction speed 6.2 X
Track quality 100.0 %
Test CRC 3CBD1250
Copy CRC 3CBD1250
Accurately ripped (confidence 1) [538C01B5] (AR v2)
Copy OK
All tracks accurately ripped
No errors occurred
End of status report
==== Log checksum 49123A4846DDEB871F5FC165D35E78A8A6161840A256BDA8F197FF2A6B69803B ====
 
Содержание индексной карты (.CUE)
REM GENRE "Free Improvisation"
REM DATE 2011
REM DISCID 650DC007
REM COMMENT "ExactAudioCopy v1.0b3"
PERFORMER "The Ken Silverman Septet"
TITLE "From Emptiness"
FILE "01 - From.wav" WAVE
TRACK 01 AUDIO
TITLE "From"
PERFORMER "The Ken Silverman Septet"
INDEX 01 00:00:00
FILE "02 - Empti.wav" WAVE
TRACK 02 AUDIO
TITLE "Empti"
PERFORMER "The Ken Silverman Septet"
INDEX 01 00:00:00
FILE "03 - Ness.wav" WAVE
TRACK 03 AUDIO
TITLE "Ness"
PERFORMER "The Ken Silverman Septet"
INDEX 01 00:00:00
FILE "04 - Thought.wav" WAVE
TRACK 04 AUDIO
TITLE "Thought"
PERFORMER "The Ken Silverman Septet"
INDEX 01 00:00:00
FILE "05 - And Emo.wav" WAVE
TRACK 05 AUDIO
TITLE "And Emo"
PERFORMER "The Ken Silverman Septet"
INDEX 01 00:00:00
FILE "06 - Tion.wav" WAVE
TRACK 06 AUDIO
TITLE "Tion"
PERFORMER "The Ken Silverman Septet"
INDEX 01 00:00:00
FILE "07 - From (Reprise).wav" WAVE
TRACK 07 AUDIO
TITLE "From (Reprise)"
PERFORMER "The Ken Silverman Septet"
INDEX 01 00:00:00
 
Лог проверки качества
d:\>d:\aucdtect -d/-m0 d:\zzz\*.wav
auCDtect: CD records authenticity detector, version 0.8.2
Copyright (c) 2004 Oleg Berngardt. All rights reserved.
Copyright (c) 2004 Alexander Djourik. All rights reserved.
------------------------------------------------------------
Processing file: [01. From.wav]
------------------------------------------------------------
This track looks like CDDA with probability 100%
------------------------------------------------------------
Processing file: [02. Empti.wav]
------------------------------------------------------------
This track looks like CDDA with probability 87%
------------------------------------------------------------
Processing file: [03. Ness.wav]
------------------------------------------------------------
This track looks like CDDA with probability 100%
------------------------------------------------------------
Processing file: [04. Thought.wav]
------------------------------------------------------------
This track looks like CDDA with probability 100%
------------------------------------------------------------
Processing file: [05. And Emo.wav]
------------------------------------------------------------
This track looks like CDDA with probability 100%
------------------------------------------------------------
Processing file: [06. Tion.wav]
------------------------------------------------------------
This track looks like CDDA with probability 100%
------------------------------------------------------------
Processing file: [07. From (Reprise).wav]
------------------------------------------------------------
This track looks like CDDA with probability 42%
------------------------------------------------------------
Final Conclusion:
------------------------------------------------------------
These tracks looks like CDDA with probability 100%
Доп. информация:
 
Album Info & AAJ Review
Produced by Ken Silverman and Soundseer Records
Recorded November 2009 at Future Sound, NY
Recorded and mixed by Ivan Evangelista
Mastered by Matthew Agoglia
Paintings by Ken Silverman
Design by www.quae.gd
Thanks to you the listener and special thanks to the musicians. A word about Kossan: a practicing Buddhist monk, I met him while he was chanting in front of the Metropolitan Museum of Art a few years ago. He was game for trying improvisation and proved to be a natural. The centerpiece of this recording is "From", which is an orchestral arrangement designed to create improvised episodes of shifting instrumental combinations. The other pieces are all free improvisations. I hope you enjoy. (Ken Silverman, NYC 2011)
Guitarist/oudist/composer Ken Silverman's From Emptiness is an overtly theatrical and intensely spiritual work. From the abstract, Zen-like, black and white cover art to the chanting of the Buddhist Monk and Sanshin player Kossan that opens and closes the record, the profound spirituality of the music is quite apparent.
The titles of the tunes spell out the sentence "From Emptiness Thought and Emotion," and even though there are seven individual tracks, the music is conceptually one long suite, with an intermission placed before the hypnotic "And Emo" and subsequent "Tion" which change the momentum by creating a repetitive theme where instruments and vocals swirl around each other in an ever-expanding eddy of harmony and sound. The coda-like "From (reprise)," a second take of Kossan's opening chant ends the album.
The theatricality of the compositions and improvisations are not just formalist affectation, but a necessary part of the creative process, as different musical instruments wander, in pairs, onto the virtual stage—the horns first, followed by two pairs of string instruments—building the theme. Here and there, homages to more traditional jazz styles appear; near the middle of "From," clarinetist Blaise Siwula and trumpeter Roy Campbell start a duet that briefly harks back to the early days of New Orleans jazz, before they break into freer improvisations. The rest of the track introduces different combinations of instruments chatting back and forth, with Dave Miller's arrhythmic but quite evocative drumming pushing the musical action forward.
The rest of the music is essentially free group improvisation that keeps one foot in composition, while expanding its wings on flights of wild fancy.
Despite their various origins, the instruments do not sound at odds with each other but are surprisingly harmonious. Silverman's oud and Cambell's flute, on "Ness," weave an Arabic sounding melody, while Siwula's free alto sax and Tom Swafford violin's atonal violin add a clearly modern western flavor. On "Thought" Campell's brassy flugelhorn, backed by Silverman on hand percussion, resonates well with Tom Shader's Turkish Cumbus, creating a 1001 Nights-like fairy tale of a melody.
With this challenging yet immensely rewarding disc, Silverman and his septet of accomplished musicians have created a work of unique mysticism, drawing upon multiple different cultures to for a near-masterpiece of improvised music.
 
Состав
Ken Silverman: electric & acoustic guitars, oud, hand percussion
Roy Campbell: trumpet, pocket trumpet, flugelhorn, flute
Kossan: chanting and sanshin
Blaise Siwula: alto saxophone and clarinet
Tom Shad: turkish cumbus
Dave Miller: drums
Tom Swafford: violin
Any questions -> support@pro-jazz.com. По всем вопросам пишите -> support@pro-jazz.com
21:58
160
Нет комментариев. Ваш будет первым!