Вы используете незарегистрированную версию компонента "Вкладки"!

Поиск

(Free Jazz, Post-Bop) [CD] David Murray Infinity Quartet - Be My Monster Love - 2013, FLAC (tracks+.cue), lossless

(Free Jazz, Post-Bop) [CD] David Murray Infinity Quartet - Be My Monster Love - 2013, FLAC (tracks+.cue), lossless
Треклист:
David Murray Infinity Quartet / Be My Monster Love
Жанр: Free Jazz, Post-Bop
Носитель: CD
Страна-производитель диска: US
Год издания: 2013
Издатель (лейбл): Motéma ‎Records
Номер по каталогу: MTM-112
Страна: US
Аудиокодек: FLAC (*.flac)
Тип рипа: tracks+.cue
Битрейт аудио: lossless
Продолжительность: 56:24
Источник (релизер): losslessinside
Наличие сканов в содержимом раздачи:
Треклист:
1 French Kiss For Valerie
2 Be My Monster Love
3 Stressology
4 Army Of The Faithful [Joyful Noise]
5 Sorrow Song
6 About The Children
7 The Graduate
8 Hope Is A Thing With Feathers
 
Лог создания рипа
Exact Audio Copy V1.0 beta 3 from 29. August 2011
EAC extraction logfile from 21. December 2013, 0:24
David Murray Infinity Quartet / Be My Monster Love
Used drive : TSSTcorpCD/DVDW SH-S182M Adapter: 2 ID: 0
Read mode : Secure
Utilize accurate stream : Yes
Defeat audio cache : Yes
Make use of C2 pointers : No
Read offset correction : 6
Overread into Lead-In and Lead-Out : No
Fill up missing offset samples with silence : Yes
Delete leading and trailing silent blocks : No
Null samples used in CRC calculations : Yes
Used interface : Native Win32 interface for Win NT & 2000
Gap handling : Appended to previous track
Used output format : User Defined Encoder
Selected bitrate : 1024 kBit/s
Quality : High
Add ID3 tag : No
Command line compressor : C:\Program Files (x86)\Exact Audio Copy\FLAC\flac.exe
Additional command line options : -8 -V -T "ARTIST=%artist%" -T "TITLE=%title%" -T "ALBUM=%albumtitle%" -T "DATE=%year%" -T "TRACKNUMBER=%tracknr%" -T "GENRE=%genre%" -T "PERFORMER=%albuminterpret%" -T "COMPOSER=%composer%" %haslyrics%--tag-from-file=LYRICS="%lyricsfile%"%haslyrics% -T "ALBUMARTIST=%albumartist%" -T "DISCNUMBER=%cdnumber%" -T "TOTALDISCS=%totalcds%" -T "TOTALTRACKS=%numtracks%" -T "COMMENT=%comment%" %source% -o %dest%
TOC of the extracted CD
Track | Start | Length | Start sector | End sector
---------------------------------------------------------
1 | 0:00.00 | 6:55.72 | 0 | 31196
2 | 6:55.72 | 6:35.20 | 31197 | 60841
3 | 13:31.17 | 6:45.04 | 60842 | 91220
4 | 20:16.21 | 6:19.28 | 91221 | 119673
5 | 26:35.49 | 8:58.36 | 119674 | 160059
6 | 35:34.10 | 7:49.01 | 160060 | 195235
7 | 43:23.11 | 5:41.43 | 195236 | 220853
8 | 49:04.54 | 7:19.71 | 220854 | 253849
Track 1
Filename C:\Users\Mike\Downloads\David Murray - Be My Monster Love (2013)\01 French Kiss for Valerie.wav
Pre-gap length 0:00:02.00
Peak level 100.0 %
Extraction speed 4.4 X
Track quality 99.9 %
Test CRC D9754EEF
Copy CRC D9754EEF
Cannot be verified as accurate (confidence 5) [BA641F0D], AccurateRip returned [BBE75F98] (AR v2)
Copy OK
Track 2
Filename C:\Users\Mike\Downloads\David Murray - Be My Monster Love (2013)\02 Be My Monster Love (feat Marcy Gray).wav
Peak level 98.8 %
Extraction speed 5.5 X
Track quality 100.0 %
Test CRC 8E2091FD
Copy CRC 8E2091FD
Cannot be verified as accurate (confidence 5) [09DDB86D], AccurateRip returned [4ED0696F] (AR v2)
Copy OK
Track 3
Filename C:\Users\Mike\Downloads\David Murray - Be My Monster Love (2013)\03 Stressology.wav
Peak level 100.0 %
Extraction speed 5.7 X
Track quality 99.9 %
Test CRC 21E90B0C
Copy CRC 21E90B0C
Cannot be verified as accurate (confidence 4) [E8952685], AccurateRip returned [89B88758] (AR v2)
Copy OK
Track 4
Filename C:\Users\Mike\Downloads\David Murray - Be My Monster Love (2013)\04 Army of the Faithful (feat. Gregory Porter).wav
Peak level 100.0 %
Extraction speed 6.6 X
Track quality 100.0 %
Test CRC B48082D7
Copy CRC B48082D7
Cannot be verified as accurate (confidence 4) [9DEBFFD3], AccurateRip returned [B0E831DF] (AR v2)
Copy OK
Track 5
Filename C:\Users\Mike\Downloads\David Murray - Be My Monster Love (2013)\05 Sorrow Song.wav
Peak level 100.0 %
Extraction speed 7.0 X
Track quality 99.9 %
Test CRC 555D5703
Copy CRC 555D5703
Cannot be verified as accurate (confidence 4) [1F48C4E9], AccurateRip returned [DBEEE43D] (AR v2)
Copy OK
Track 6
Filename C:\Users\Mike\Downloads\David Murray - Be My Monster Love (2013)\06 About the Children (feat. Gregory Porter).wav
Peak level 100.0 %
Extraction speed 8.0 X
Track quality 100.0 %
Test CRC E97E89E7
Copy CRC E97E89E7
Cannot be verified as accurate (confidence 4) [68E14FD8], AccurateRip returned [1714313C] (AR v2)
Copy OK
Track 7
Filename C:\Users\Mike\Downloads\David Murray - Be My Monster Love (2013)\07 The Graduate (feat. Bobby Bradford).wav
Peak level 100.0 %
Extraction speed 8.2 X
Track quality 100.0 %
Test CRC 829C94FB
Copy CRC 829C94FB
Cannot be verified as accurate (confidence 4) [19D1352E], AccurateRip returned [7F60DEE4] (AR v2)
Copy OK
Track 8
Filename C:\Users\Mike\Downloads\David Murray - Be My Monster Love (2013)\08 Hope is a This with Feathers (feat. Greogry Porter).wav
Peak level 99.8 %
Extraction speed 8.7 X
Track quality 100.0 %
Test CRC DBC065FD
Copy CRC DBC065FD
Cannot be verified as accurate (confidence 5) [68321298], AccurateRip returned [508F6620] (AR v2)
Copy OK
No tracks could be verified as accurate
You may have a different pressing from the one(s) in the database
No errors occurred
End of status report
---- CUETools DB Plugin V2.1.3
[CTDB TOCID: ICCMOLuwSUVpPe.afF5FrRZWi9g-] found, Submit result: ICCMOLuwSUVpPe.afF5FrRZWi9g- has been confirmed
[2b7ca047] (4/5) Accurately ripped
[cf867a7d] (1/5) No match
==== Log checksum 0E359FEF3E690B41A4CF7A70DD5D30C4905E30D161F66B626BBD3AA8AAC013CC ====
 
Содержание индексной карты (.CUE)
 
Оригинал
REM DATE 2013
REM DISCID 6A0D3808
REM COMMENT "ExactAudioCopy v1.0b3"
PERFORMER "David Murray Infinity Quartet"
TITLE "Be My Monster Love"
FILE "01 French Kiss for Valerie.wav" WAVE
TRACK 01 AUDIO
TITLE "French Kiss for Valerie"
PERFORMER "David Murray Infinity Quartet"
INDEX 01 00:00:00
FILE "02 Be My Monster Love (feat Marcy Gray).wav" WAVE
TRACK 02 AUDIO
TITLE "Be My Monster Love (feat Marcy Gray)"
PERFORMER "David Murray Infinity Quartet"
INDEX 01 00:00:00
FILE "03 Stressology.wav" WAVE
TRACK 03 AUDIO
TITLE "Stressology"
PERFORMER "David Murray Infinity Quartet"
INDEX 01 00:00:00
FILE "04 Army of the Faithful (feat. Gregory Porter).wav" WAVE
TRACK 04 AUDIO
TITLE "Army of the Faithful (feat. Gregory Porter)"
PERFORMER "David Murray Infinity Quartet"
INDEX 01 00:00:00
FILE "05 Sorrow Song.wav" WAVE
TRACK 05 AUDIO
TITLE "Sorrow Song"
PERFORMER "David Murray Infinity Quartet"
INDEX 01 00:00:00
FILE "06 About the Children (feat. Gregory Porter).wav" WAVE
TRACK 06 AUDIO
TITLE "About the Children (feat. Gregory Porter)"
PERFORMER "David Murray Infinity Quartet"
INDEX 01 00:00:00
FILE "07 The Graduate (feat. Bobby Bradford).wav" WAVE
TRACK 07 AUDIO
TITLE "The Graduate (feat. Bobby Bradford)"
PERFORMER "David Murray Infinity Quartet"
INDEX 01 00:00:00
FILE "08 Hope is a This with Feathers (feat. Greogry Porter).wav" WAVE
TRACK 08 AUDIO
TITLE "Hope is a This with Feathers (feat. Greogry Porter)"
PERFORMER "David Murray Infinity Quartet"
INDEX 01 00:00:00
 
Откорректированный
REM DATE 2013
REM DISCID 6A0D3808
REM COMMENT "ExactAudioCopy v1.0b3"
PERFORMER "David Murray Infinity Quartet"
TITLE "Be My Monster Love"
FILE "01 - French Kiss for Valerie.wav" WAVE
TRACK 01 AUDIO
TITLE "French Kiss for Valerie"
PERFORMER "David Murray Infinity Quartet"
INDEX 01 00:00:00
FILE "02 - Be My Monster Love (feat Marcy Gray).wav" WAVE
TRACK 02 AUDIO
TITLE "Be My Monster Love (feat Marcy Gray)"
PERFORMER "David Murray Infinity Quartet"
INDEX 01 00:00:00
FILE "03 - Stressology.wav" WAVE
TRACK 03 AUDIO
TITLE "Stressology"
PERFORMER "David Murray Infinity Quartet"
INDEX 01 00:00:00
FILE "04 - Army of the Faithful (feat. Gregory Porter).wav" WAVE
TRACK 04 AUDIO
TITLE "Army of the Faithful (feat. Gregory Porter)"
PERFORMER "David Murray Infinity Quartet"
INDEX 01 00:00:00
FILE "05 - Sorrow Song.wav" WAVE
TRACK 05 AUDIO
TITLE "Sorrow Song"
PERFORMER "David Murray Infinity Quartet"
INDEX 01 00:00:00
FILE "06 - About the Children (feat. Gregory Porter).wav" WAVE
TRACK 06 AUDIO
TITLE "About the Children (feat. Gregory Porter)"
PERFORMER "David Murray Infinity Quartet"
INDEX 01 00:00:00
FILE "07 - The Graduate (feat. Bobby Bradford).wav" WAVE
TRACK 07 AUDIO
TITLE "The Graduate (feat. Bobby Bradford)"
PERFORMER "David Murray Infinity Quartet"
INDEX 01 00:00:00
FILE "08 - Hope is a This with Feathers (feat. Greogry Porter).wav" WAVE
TRACK 08 AUDIO
TITLE "Hope is a This with Feathers (feat. Greogry Porter)"
PERFORMER "David Murray Infinity Quartet"
INDEX 01 00:00:00
 
Лог проверки качества
d:\>d:\aucdtect -d/-m0 d:\zzz\*.wav
auCDtect: CD records authenticity detector, version 0.8.2
Copyright (c) 2004 Oleg Berngardt. All rights reserved.
Copyright (c) 2004 Alexander Djourik. All rights reserved.
------------------------------------------------------------
Processing file: [01. French Kiss for Valerie.wav]
------------------------------------------------------------
This track looks like CDDA with probability 100%
------------------------------------------------------------
Processing file: [02. Be My Monster Love (feat Marcy Gray).wav]
------------------------------------------------------------
This track looks like CDDA with probability 100%
------------------------------------------------------------
Processing file: [03. Stressology.wav]
------------------------------------------------------------
This track looks like CDDA with probability 100%
------------------------------------------------------------
Processing file: [04. Army of the Faithful (feat. Gregory Porter).wav]
------------------------------------------------------------
This track looks like CDDA with probability 100%
------------------------------------------------------------
Processing file: [05. Sorrow Song.wav]
------------------------------------------------------------
This track looks like CDDA with probability 100%
------------------------------------------------------------
Processing file: [06. About the Children (feat. Gregory Porter).wav]
------------------------------------------------------------
This track looks like CDDA with probability 100%
------------------------------------------------------------
Processing file: [07. The Graduate (feat. Bobby Bradford).wav]
------------------------------------------------------------
This track looks like CDDA with probability 100%
------------------------------------------------------------
Processing file: [08. Hope is a This with Feathers (feat. Greogry Porter).wav]
------------------------------------------------------------
This track looks like CDDA with probability 100%
------------------------------------------------------------
Final Conclusion:
------------------------------------------------------------
These tracks looks like CDDA with probability 100%
Доп. информация:
 
AMG Review
David Murray's last Motema Music offering, Plays Nat King Cole en Español, wowed listeners with its inventive reading of the music from the great singer's two Spanish-language albums with a Cuban ensemble. On Be My Monster Love, Murray unveils his Infinity Quartet (named for the jazz loft he and Stanley Crouch operated in New York in the 1970s) with pianist/organist Marc Cary, drummer Nasheet Waits, and bassist Jaribu Shahid. While a Latin-tinged groove on opener "French Kiss for Valerie" sets the tone in post-bop terms, this is a varied affair that showcases the many aspects of the tradition Murray embodies in both his playing and arranging. He provides a link between an Ellington-ian elegance and the deep, gospel-influenced emotionalism of Albert Ayler, the soulful, melodic, inquisitive investigations of Ben Webster, and the modal openness of John Coltrane. The title track features Macy Gray (the first of three tunes here with lyrics by writer Ishmael Reed), offering her raw, sensual vocal on a fingerpopping swinger. Gregory Porter makes three appearances as well, first on the nearly gospel-ized R&B of "Army of the Faithful (Joyful Noise)," driven by Cary's B-3 and recalling Murray's Special Quartet with the late Don Pullen. The midtempo "Sorrow Song" is actually a deeply moving ballad with the saxophonist offering a rounded warmth in his tone as Waits' skittering cymbals set the groove. Rich, modal soul and Latin rhythms underpin Porter's vocal on "About the Children," with lyrics by Last Poet Abiodun Oyewole. Shahid's bassline is a propulsive glue, holding seemingly disparate elements together in a glorious whole. Murray's former teacher, trumpeter Bobby Bradford, guests with the quartet on the skillfully skewed blues walk that is "The Graduate." But the set's finest moment is on the nearly straight-ahead sprint that is "Stressology," with Murray getting in some of his most fleet-fingered lines and righteous groans. The interplay between Cary's piano and Shahid's bass is breathtaking. Be My Monster Love is a diverse, travel modern creative jazz through a prismatic lens. While Murray's compositions are tighter and more song-like than ever (the presence of these excellent vocalists highlights this), he simultaneously offers a group of stellar players the opportunity (collectively and individually) to shine and push their margins. Highly recommended.
 
Состав
Bass – Jaribu Shahid
Drums – Nasheet Waits
Piano, Organ – Marc Cary
Tenor Saxophone – David Murray
Macy Gray: vocals (2)
Gregory Porter: vocals (4,6,8)
Bobby Bradford: cornet (7)
Any questions -> support@pro-jazz.com. По всем вопросам пишите -> support@pro-jazz.com
21:59
145
Нет комментариев. Ваш будет первым!