Вы используете незарегистрированную версию компонента "Вкладки"!

Поиск

(Avant-Garde Jazz, Free Improvisation) [CD] Sonny Simmons - The Complete ESP-Disk' Recordings {2CD} - 2005, FLAC (image+.cue), lossless

(Avant-Garde Jazz, Free Improvisation) [CD] Sonny Simmons - The Complete ESP-Disk' Recordings {2CD} - 2005, FLAC (image+.cue), lossless
Треклист:
♦ Sonny Simmons - The Complete ESP-Disk' Recordings {2CD} ♦
Жанр: Avant-Garde Jazz, Free Improvisation
Носитель: CD
Год издания: 2005
Издатель (лейбл): ESP-Disk
Номер по каталогу: ESP 4012
Аудиокодек: FLAC (*.flac)
Тип рипа: image+.cue
Битрейт аудио: lossless
Продолжительность: 02:07:00
Источник (релизер): Рипы с дисков.
Наличие сканов в содержимом раздачи: да
 
♦ CD1 (00:58:31)
Треклист:

01. Metamorphosis [11:49]
02. Distant Voice [07:32]
03. City of David [15:20]
04. Interplanetary Travelers [09:35]
05. Change from the 50's to the 60's [02:26]
06. The Avant Garde [01:42]
07. Fear of Exposing the Music [01:50]
08. Sonny on Barbara Donald I [02:35]
09. Barbara's Influences [00:26]
10. Staying on the Watch [00:34]
11. Sonny on Barbara Donald II [01:52]
12. The City of David [00:55]
13. Metamorphosis [00:18]
14. Barbara on Her and Sonny's Children [00:42]
15. The College Circuit [00:49]
 
Лог создания рипа
Exact Audio Copy V1.0 beta 3 from 29. August 2011
EAC extraction logfile from 19. January 2014, 19:01
Sonny Simmons / The Complete ESP-Disk' Recordings CD 1
Used drive : ATAPI iHAS124 D Adapter: 1 ID: 0
Read mode : Secure
Utilize accurate stream : Yes
Defeat audio cache : Yes
Make use of C2 pointers : No
Read offset correction : 6
Overread into Lead-In and Lead-Out : No
Fill up missing offset samples with silence : Yes
Delete leading and trailing silent blocks : No
Null samples used in CRC calculations : Yes
Used interface : Native Win32 interface for Win NT & 2000
Used output format : User Defined Encoder
Selected bitrate : 128 kBit/s
Quality : High
Add ID3 tag : No
Command line compressor : C:\Program Files (x86)\Exact Audio Copy\Flac\flac.exe
Additional command line options : -V -8 -T "Genre=%genre%" -T "Artist=%artist%" -T "Title=%title%" -T "Album=%albumtitle%" -T "Date=%year%" -T "Tracknumber=%tracknr%" -T "Comment=%comment%" %source%
TOC of the extracted CD
Track | Start | Length | Start sector | End sector
---------------------------------------------------------
1 | 0:00.00 | 11:49.59 | 0 | 53233
2 | 11:49.59 | 7:32.08 | 53234 | 87141
3 | 19:21.67 | 15:20.01 | 87142 | 156142
4 | 34:41.68 | 9:35.22 | 156143 | 199289
5 | 44:17.15 | 2:26.00 | 199290 | 210239
6 | 46:43.15 | 1:42.57 | 210240 | 217946
7 | 48:25.72 | 1:50.06 | 217947 | 226202
8 | 50:16.03 | 2:35.04 | 226203 | 237831
9 | 52:51.07 | 0:26.64 | 237832 | 239845
10 | 53:17.71 | 0:34.10 | 239846 | 242405
11 | 53:52.06 | 1:52.29 | 242406 | 250834
12 | 55:44.35 | 0:55.72 | 250835 | 255031
13 | 56:40.32 | 0:18.36 | 255032 | 256417
14 | 56:58.68 | 0:42.44 | 256418 | 259611
15 | 57:41.37 | 0:49.66 | 259612 | 263352
Range status and errors
Selected range
Filename D:\2005.Sonny Simmons - The Complete ESP-Disk' Recordings (2CD)\CD1\Sonny Simmons - The Complete ESP-Disk' Recordings CD 1.wav
Peak level 100.0 %
Extraction speed 8.9 X
Range quality 100.0 %
Test CRC 8A85C787
Copy CRC 8A85C787
Copy OK
No errors occurred
AccurateRip summary
Track 1 accurately ripped (confidence 1) [CC8FA434] (AR v1)
Track 2 accurately ripped (confidence 1) [344776FC] (AR v1)
Track 3 accurately ripped (confidence 1) [C82A68BF] (AR v1)
Track 4 accurately ripped (confidence 1) [1430AE01] (AR v1)
Track 5 accurately ripped (confidence 1) [2546B233] (AR v1)
Track 6 accurately ripped (confidence 1) [99534418] (AR v1)
Track 7 accurately ripped (confidence 1) [624E3DF9] (AR v1)
Track 8 accurately ripped (confidence 1) [3D52E260] (AR v1)
Track 9 accurately ripped (confidence 1) [77BFFF47] (AR v1)
Track 10 accurately ripped (confidence 1) [70B1CDC7] (AR v1)
Track 11 accurately ripped (confidence 1) [35CF4901] (AR v1)
Track 12 accurately ripped (confidence 1) [CFE59F66] (AR v1)
Track 13 accurately ripped (confidence 1) [3D2AEDC2] (AR v1)
Track 14 accurately ripped (confidence 1) [86CE9BAD] (AR v1)
Track 15 accurately ripped (confidence 1) [29241E17] (AR v1)
All tracks accurately ripped
End of status report
==== Log checksum 4DDF921A62148E234573D70E3CAC1B11B07A2B08B1F953FE7A49BE543810EEAC ====
 
Содержание индексной карты (.CUE)
REM GENRE Jazz
REM DATE 2005
REM DISCID C80DB70F
REM COMMENT "ExactAudioCopy v1.0b3"
PERFORMER "Sonny Simmons"
TITLE "The Complete ESP-Disk' Recordings CD 1"
FILE "Sonny Simmons - The Complete ESP-Disk' Recordings CD 1.flac" WAVE
TRACK 01 AUDIO
TITLE "Metamorphosis"
PERFORMER "Sonny Simmons"
FLAGS DCP
INDEX 01 00:00:00
TRACK 02 AUDIO
TITLE "Distant Voice"
PERFORMER "Sonny Simmons"
FLAGS DCP
INDEX 00 11:47:59
INDEX 01 11:49:59
TRACK 03 AUDIO
TITLE "City of David"
PERFORMER "Sonny Simmons"
FLAGS DCP
INDEX 00 19:19:67
INDEX 01 19:21:67
TRACK 04 AUDIO
TITLE "Interplanetary Travelers"
PERFORMER "Sonny Simmons"
FLAGS DCP
INDEX 00 34:39:68
INDEX 01 34:41:68
TRACK 05 AUDIO
TITLE "Change from the 50's to the 60's"
PERFORMER "Sonny Simmons"
FLAGS DCP
INDEX 00 44:15:15
INDEX 01 44:17:15
TRACK 06 AUDIO
TITLE "The Avant Garde"
PERFORMER "Sonny Simmons"
FLAGS DCP
INDEX 00 46:41:15
INDEX 01 46:43:15
TRACK 07 AUDIO
TITLE "Fear of Exposing the Music"
PERFORMER "Sonny Simmons"
FLAGS DCP
INDEX 00 48:23:72
INDEX 01 48:25:72
TRACK 08 AUDIO
TITLE "Sonny on Barbara Donald I"
PERFORMER "Sonny Simmons"
FLAGS DCP
INDEX 00 50:14:03
INDEX 01 50:16:03
TRACK 09 AUDIO
TITLE "Barbara's Influences"
PERFORMER "Sonny Simmons"
FLAGS DCP
INDEX 00 52:49:07
INDEX 01 52:51:07
TRACK 10 AUDIO
TITLE "Staying on the Watch"
PERFORMER "Sonny Simmons"
FLAGS DCP
INDEX 00 53:15:71
INDEX 01 53:17:71
TRACK 11 AUDIO
TITLE "Sonny on Barbara Donald II"
PERFORMER "Sonny Simmons"
FLAGS DCP
INDEX 00 53:50:06
INDEX 01 53:52:06
TRACK 12 AUDIO
TITLE "The City of David"
PERFORMER "Sonny Simmons"
FLAGS DCP
INDEX 00 55:42:35
INDEX 01 55:44:35
TRACK 13 AUDIO
TITLE "Metamorphosis"
PERFORMER "Sonny Simmons"
FLAGS DCP
INDEX 00 56:38:32
INDEX 01 56:40:32
TRACK 14 AUDIO
TITLE "Barbara on Her and Sonny's Children"
PERFORMER "Sonny Simmons"
FLAGS DCP
INDEX 00 56:56:68
INDEX 01 56:58:68
TRACK 15 AUDIO
TITLE "The College Circuit"
PERFORMER "Sonny Simmons"
FLAGS DCP
INDEX 00 57:39:37
INDEX 01 57:41:37
 
♦ CD2 (01:08:28)
Треклист:

01. Resolutions [08:48]
02. Zarak's Symphony [12:59]
03. Balladia [13:02]
04. Dolphy's Days [13:45]
05. On Eric Dolphy I [01:31]
06. On Eric Dolphy II [02:43]
07. How They Treat Us [02:10]
08. The West Coast [01:01]
09. Musicians Need Work [01:49]
10. The Music Industry [02:20]
11. Learn Your Appliance [01:56]
12. The New Music [01:12]
13. Dennis Charles [00:38]
14. Barbara on Slug's Saloon [00:32]
15. Sonny's Contribution [03:55]
 
Лог создания рипа
Exact Audio Copy V1.0 beta 3 from 29. August 2011
EAC extraction logfile from 19. January 2014, 19:27
Sonny Simmons / The Complete ESP-Disk' Recordings CD2
Used drive : ATAPI iHAS124 D Adapter: 1 ID: 0
Read mode : Secure
Utilize accurate stream : Yes
Defeat audio cache : Yes
Make use of C2 pointers : No
Read offset correction : 6
Overread into Lead-In and Lead-Out : No
Fill up missing offset samples with silence : Yes
Delete leading and trailing silent blocks : No
Null samples used in CRC calculations : Yes
Used interface : Native Win32 interface for Win NT & 2000
Used output format : User Defined Encoder
Selected bitrate : 128 kBit/s
Quality : High
Add ID3 tag : No
Command line compressor : C:\Program Files (x86)\Exact Audio Copy\Flac\flac.exe
Additional command line options : -V -8 -T "Genre=%genre%" -T "Artist=%artist%" -T "Title=%title%" -T "Album=%albumtitle%" -T "Date=%year%" -T "Tracknumber=%tracknr%" -T "Comment=%comment%" %source%
TOC of the extracted CD
Track | Start | Length | Start sector | End sector
---------------------------------------------------------
1 | 0:00.00 | 8:48.34 | 0 | 39633
2 | 8:48.34 | 12:59.66 | 39634 | 98124
3 | 21:48.25 | 13:02.51 | 98125 | 156825
4 | 34:51.01 | 13:45.64 | 156826 | 218764
5 | 48:36.65 | 1:31.49 | 218765 | 225638
6 | 50:08.39 | 2:43.69 | 225639 | 237932
7 | 52:52.33 | 2:10.30 | 237933 | 247712
8 | 55:02.63 | 1:01.68 | 247713 | 252355
9 | 56:04.56 | 1:49.20 | 252356 | 260550
10 | 57:54.01 | 2:20.25 | 260551 | 271075
11 | 60:14.26 | 1:56.19 | 271076 | 279794
12 | 62:10.45 | 1:12.01 | 279795 | 285195
13 | 63:22.46 | 0:38.44 | 285196 | 288089
14 | 64:01.15 | 0:32.01 | 288090 | 290490
15 | 64:33.16 | 3:55.32 | 290491 | 308147
Range status and errors
Selected range
Filename D:\2005.Sonny Simmons - The Complete ESP-Disk' Recordings (2CD)\CD2\Sonny Simmons - The Complete ESP-Disk' Recordings CD2.wav
Peak level 100.0 %
Extraction speed 9.1 X
Range quality 100.0 %
Test CRC BD1D455A
Copy CRC BD1D455A
Copy OK
No errors occurred
AccurateRip summary
Track 1 accurately ripped (confidence 1) [2F811B4F] (AR v1)
Track 2 accurately ripped (confidence 1) [CB6B6079] (AR v1)
Track 3 accurately ripped (confidence 1) [FB70E1A3] (AR v1)
Track 4 accurately ripped (confidence 1) [2FDCB771] (AR v1)
Track 5 accurately ripped (confidence 1) [E446B79E] (AR v1)
Track 6 accurately ripped (confidence 1) [FDE05785] (AR v1)
Track 7 accurately ripped (confidence 1) [8CC5C13A] (AR v1)
Track 8 accurately ripped (confidence 1) [40895902] (AR v1)
Track 9 accurately ripped (confidence 1) [B98369CB] (AR v1)
Track 10 accurately ripped (confidence 1) [02999F62] (AR v1)
Track 11 accurately ripped (confidence 1) [0A29B6E0] (AR v1)
Track 12 accurately ripped (confidence 1) [0C46360C] (AR v1)
Track 13 accurately ripped (confidence 1) [744B0FB8] (AR v1)
Track 14 accurately ripped (confidence 1) [DE505F8A] (AR v1)
Track 15 accurately ripped (confidence 1) [73E040AC] (AR v1)
All tracks accurately ripped
End of status report
==== Log checksum 3E329D4934DCF2EE5A1B3178878DDCD45A0C6AE548E2098780DF800BBB9A0CAB ====
 
Содержание индексной карты (.CUE)
REM GENRE Jazz
REM DATE 2005
REM DISCID CB100C0F
REM COMMENT "ExactAudioCopy v1.0b3"
PERFORMER "Sonny Simmons "
TITLE "The Complete ESP-Disk' Recordings CD2"
FILE "Sonny Simmons - The Complete ESP-Disk' Recordings CD2.flac" WAVE
TRACK 01 AUDIO
TITLE "Resolutions"
PERFORMER "Sonny Simmons "
FLAGS DCP
INDEX 01 00:00:00
TRACK 02 AUDIO
TITLE "Zarak's Symphony"
PERFORMER "Sonny Simmons "
FLAGS DCP
INDEX 00 08:46:34
INDEX 01 08:48:34
TRACK 03 AUDIO
TITLE "Balladia"
PERFORMER "Sonny Simmons "
FLAGS DCP
INDEX 00 21:46:25
INDEX 01 21:48:25
TRACK 04 AUDIO
TITLE "Dolphy's Days"
PERFORMER "Sonny Simmons "
FLAGS DCP
INDEX 00 34:49:01
INDEX 01 34:51:01
TRACK 05 AUDIO
TITLE "On Eric Dolphy I"
PERFORMER "Sonny Simmons "
FLAGS DCP
INDEX 00 48:34:65
INDEX 01 48:36:65
TRACK 06 AUDIO
TITLE "On Eric Dolphy II"
PERFORMER "Sonny Simmons "
FLAGS DCP
INDEX 00 50:06:39
INDEX 01 50:08:39
TRACK 07 AUDIO
TITLE "How They Treat Us"
PERFORMER "Sonny Simmons "
FLAGS DCP
INDEX 00 52:50:33
INDEX 01 52:52:33
TRACK 08 AUDIO
TITLE "The West Coast"
PERFORMER "Sonny Simmons "
FLAGS DCP
INDEX 00 55:00:63
INDEX 01 55:02:63
TRACK 09 AUDIO
TITLE "Musicians Need Work"
PERFORMER "Sonny Simmons "
FLAGS DCP
INDEX 00 56:02:56
INDEX 01 56:04:56
TRACK 10 AUDIO
TITLE "The Music Industry"
PERFORMER "Sonny Simmons "
FLAGS DCP
INDEX 00 57:52:01
INDEX 01 57:54:01
TRACK 11 AUDIO
TITLE "Learn Your Appliance"
PERFORMER "Sonny Simmons "
FLAGS DCP
INDEX 00 60:12:26
INDEX 01 60:14:26
TRACK 12 AUDIO
TITLE "The New Music"
PERFORMER "Sonny Simmons "
FLAGS DCP
INDEX 00 62:08:45
INDEX 01 62:10:45
TRACK 13 AUDIO
TITLE "Dennis Charles"
PERFORMER "Sonny Simmons "
FLAGS DCP
INDEX 00 63:20:46
INDEX 01 63:22:46
TRACK 14 AUDIO
TITLE "Barbara on Slug's Saloon"
PERFORMER "Sonny Simmons "
FLAGS DCP
INDEX 00 63:59:15
INDEX 01 64:01:15
TRACK 15 AUDIO
TITLE "Sonny's Contribution"
PERFORMER "Sonny Simmons "
FLAGS DCP
INDEX 00 64:31:16
INDEX 01 64:33:16
 
Состав
Personnel: Sonny Simmons (alto saxophone); Michael Cohen (piano); Juney Booth, Teddy Smith (double bass); James Zitro (drums, percussion); Bert Wilson (tenor saxophone); Barbara Donald (trumpet); John Hicks (piano); Marvin Pattillo (percussion).
Any questions -> support@pro-jazz.com. По всем вопросам пишите -> support@pro-jazz.com
22:39
184
Нет комментариев. Ваш будет первым!