Вы используете незарегистрированную версию компонента "Вкладки"!

Поиск

(Free Improvisation / Avant-Garde Jazz) [CD] Adam Lane (Darius Jones, Vijay Anderson) - Absolute Horizon - 2013, FLAC (tracks+.cue), lossless

(Free Improvisation / Avant-Garde Jazz) [CD] Adam Lane (Darius Jones, Vijay Anderson) - Absolute Horizon - 2013, FLAC (tracks+.cue), lossless
Треклист:
Adam Lane - Absolute Horizon
Жанр: Free Improvisation / Avant-Garde Jazz
Носитель: CD
Страна-производитель диска: Lithuania
Год издания: 2013
Издатель (лейбл): NoBusiness Records
Номер по каталогу: NBCD 61
Аудиокодек: FLAC (*.flac)
Тип рипа: tracks+.cue
Битрейт аудио: lossless
Продолжительность: 01:01:29
Источник (релизер): nnm, Джаз Клуб, 14 января, 2014 / спасибо mishka1981
Наличие сканов в содержимом раздачи: да / *.jpg (300 dpi)
Треклист:
1. Absolute Horizon (08:57)
2. Stars (06:52)
3. The Great Glass Elevator (07:47)
4. Run To Infinity (09:50)
5. Apparent Horizon (10:09)
6. Bioluminescence (07:22)
7. Light (10:49)
Доп. информация:
Musicians:
ADAM LANE - bass
DARIUS JONES - alto saxophone
VIJAY ANDERSON - drums
Recorded by Ross Bonadonna, June 10, 2010 at Wombat Recording Company, Brooklyn, NY
Mixed by Jon Rosenberg, Brooklyn, NY July 31, 2012
© 2013, NoBusiness Records
ADAM LANE - Absolute Horizon nobusinessrecords.com
ADAM LANE - Absolute Horizon allaboutjazz.com
ADAM LANE Official Site
DARIUS JONES Official Site
VIJAY ANDERSON Official Site
 
... back ...
 
 
 
... review ...
Not enough is heard from Brooklyn-born bassist Adam Lane. He boasts an impressive track record, illuminated by a series of outstanding recordings, mainly on the CIMP label, but culminating in the acclaimed Ashcan Rantings (Clean Feed, 2010). Nothing has surfaced under his own name since, so any new disc grabs attention. That's not to say he has been idle, notching up notable appearances on drummer William Hooker's excellent Bliss Suite(Not Two, 2010) which also featured rising star saxophonistDarius Jones, as well as on the reedman's own Big Gurl (Smell My Dream) (Aum Fidelity, 2011).
But unlike the aforementioned entries in his discography, which paired masterful charts with inventive delivery, Absolute Horizon comprises seven totally improvised cuts, credited collectively to the trio of Lane, Jones (happily on board once again), and drummer Vijay Anderson. Both have been frequent collaborators, in particular Anderson, hitched to the bassist for almost two decades, accounting for the potent shared conception of jazz-imbued free improvisation.
With his rich deep tone, the leader adds a tensile strength to the cohesive exchanges and taut riffs, although some may find his use of electronic distortion on two selections insufficiently differentiated compared to his finely nuanced work elsewhere. On alto Jones' treacly sweetness edging into tart dissonance, allied to soulful inflections and a broad vibrato, invest even the simplest phrases with emotional heft. As may be imagined Anderson meshes supremely well with the bassist, smoothly switching gears between sensitive accompanist and hard driving timekeeper.
Many of the numbers adhere to a template of gradual build up to a pressurized crescendo followed by eventual wind down. At best, what emerges sounds completely natural, inevitable even, with an effortless balance and near telepathic interplay. The title track lays out the band's stall from the git-go: intermittent throb from the drums, spaciously measured bass and elongated alto combining to spine tingling effect.
Other highlights include "Run To Infinity" where Lane's strummed bass settles into a searching vamp, fuelling a yearning alto soliloquy which escalates to a powerful sequence of expressive vocalized howls. Later on the final "Light" Jones spins out his stories over a buoyant rhythmic latticework until morphing into an insistent angular figure presaging a ticking conclusion. Only one thing prevents this being a five star outing: too many of the pieces seem to peter out rather than emphatically concluding, always a difficult trick to pull off after rhythm-based extemporization which sets up expectations of a more definite resolution. But that shouldn't detract from the splendid interaction that comes before, and it certainly shouldn't deter those wishing to hear more from Lane.
John Sharpe ~ allaboutjazz.com
 
 
Лог создания рипа
Exact Audio Copy V1.0 beta 1 from 15. November 2010
EAC extraction logfile from 14. January 2014, 21:09
Adam Lane / Absolute Horizon
Used drive  : TSSTcorpCDDVDW TS-L633A   Adapter: 3  ID: 0
Read mode               : Secure
Utilize accurate stream : Yes
Defeat audio cache      : Yes
Make use of C2 pointers : No
Read offset correction                      : 6
Overread into Lead-In and Lead-Out          : No
Fill up missing offset samples with silence : Yes
Delete leading and trailing silent blocks   : No
Null samples used in CRC calculations       : Yes
Used interface                              : Installed external ASPI interface
Gap handling                                : Appended to previous track
Used output format              : User Defined Encoder
Selected bitrate                : 896 kBit/s
Quality                         : High
Add ID3 tag                     : No
Command line compressor         : C:\Program Files\Exact Audio Copy\FLAC\FLAC.EXE
Additional command line options : -8 -V -T "ARTIST=%a" -T "TITLE=%t" -T "ALBUM=%g" -T "DATE=%y" -T "TRACKNUMBER=%n" -T "TOTALTRACKS=%x" -T "GENRE=%m" -T "ALBUMARTIST=%v" -T "ALBUM ARTIST=%v" -T "COMMENT=EAC Secure Mode, Test & Copy, AccurateRip, FLAC -8" %s
TOC of the extracted CD
     Track |   Start  |  Length  | Start sector | End sector
    ---------------------------------------------------------
        1  |  0:00.00 |  8:57.31 |         0    |    40305
        2  |  8:57.31 |  6:52.10 |     40306    |    71215
        3  | 15:49.41 |  7:47.19 |     71216    |   106259
        4  | 23:36.60 |  9:50.05 |    106260    |   150514
        5  | 33:26.65 | 10:09.44 |    150515    |   196233
        6  | 43:36.34 |  7:22.14 |    196234    |   229397
        7  | 50:58.48 | 10:49.13 |    229398    |   278085
Track  1
     Filename C:\MY RIPS\01 - Absolute Horizon.wav
     Pre-gap length  0:00:02.00
     Peak level 96.6 %
     Extraction speed 1.3 X
     Track quality 100.0 %
     Test CRC 28C22217
     Copy CRC 28C22217
     Track not present in AccurateRip database
     Copy OK
Track  2
     Filename C:\MY RIPS\02 - Stars.wav
     Pre-gap length  0:00:03.00
     Peak level 96.6 %
     Extraction speed 1.5 X
     Track quality 100.0 %
     Test CRC 7156533A
     Copy CRC 7156533A
     Track not present in AccurateRip database
     Copy OK
Track  3
     Filename C:\MY RIPS\03 - The Great Glass Elevator.wav
     Pre-gap length  0:00:03.00
     Peak level 96.6 %
     Extraction speed 1.7 X
     Track quality 100.0 %
     Test CRC 8A349F7A
     Copy CRC 8A349F7A
     Track not present in AccurateRip database
     Copy OK
Track  4
     Filename C:\MY RIPS\04 - Run To Infinity.wav
     Pre-gap length  0:00:03.00
     Peak level 96.6 %
     Extraction speed 1.6 X
     Track quality 99.9 %
     Test CRC 83948545
     Copy CRC 83948545
     Track not present in AccurateRip database
     Copy OK
Track  5
     Filename C:\MY RIPS\05 - Apparent Horizon.wav
     Pre-gap length  0:00:03.00
     Peak level 96.6 %
     Extraction speed 2.1 X
     Track quality 100.0 %
     Test CRC E262FED2
     Copy CRC E262FED2
     Track not present in AccurateRip database
     Copy OK
Track  6
     Filename C:\MY RIPS\06 - Bioluminescence.wav
     Pre-gap length  0:00:03.00
     Peak level 96.6 %
     Extraction speed 2.2 X
     Track quality 100.0 %
     Test CRC A0EFEDB1
     Copy CRC A0EFEDB1
     Track not present in AccurateRip database
     Copy OK
Track  7
     Filename C:\MY RIPS\07 - Light.wav
     Pre-gap length  0:00:03.00
     Peak level 96.6 %
     Extraction speed 2.0 X
     Track quality 99.9 %
     Test CRC 7240B126
     Copy CRC 7240B126
     Track not present in AccurateRip database
     Copy OK
None of the tracks are present in the AccurateRip database
No errors occurred
End of status report
==== Log checksum B96517651171F0A7F49C3F436708665043736866EAFC776CD016930513AE9421 ====
 
 
Содержание индексной карты (.CUE)
REM GENRE Jazz
REM DATE 2010
REM DISCID 540E7B07
REM COMMENT "ExactAudioCopy v1.0b1"
PERFORMER "Adam Lane"
TITLE "Absolute Horizon"
FILE "01 - Absolute Horizon.wav" WAVE
  TRACK 01 AUDIO
    TITLE "Absolute Horizon"
    PERFORMER "Adam Lane"
    INDEX 01 00:00:00
  TRACK 02 AUDIO
    TITLE "Stars"
    PERFORMER "Adam Lane"
    INDEX 00 08:54:31
FILE "02 - Stars.wav" WAVE
    INDEX 01 00:00:00
  TRACK 03 AUDIO
    TITLE "The Great Glass Elevator"
    PERFORMER "Adam Lane"
    INDEX 00 06:49:10
FILE "03 - The Great Glass Elevator.wav" WAVE
    INDEX 01 00:00:00
  TRACK 04 AUDIO
    TITLE "Run To Infinity"
    PERFORMER "Adam Lane"
    INDEX 00 07:44:19
FILE "04 - Run To Infinity.wav" WAVE
    INDEX 01 00:00:00
  TRACK 05 AUDIO
    TITLE "Apparent Horizon"
    PERFORMER "Adam Lane"
    INDEX 00 09:47:05
FILE "05 - Apparent Horizon.wav" WAVE
    INDEX 01 00:00:00
  TRACK 06 AUDIO
    TITLE "Bioluminescence"
    PERFORMER "Adam Lane"
    INDEX 00 10:06:44
FILE "06 - Bioluminescence.wav" WAVE
    INDEX 01 00:00:00
  TRACK 07 AUDIO
    TITLE "Light"
    PERFORMER "Adam Lane"
    INDEX 00 07:19:14
FILE "07 - Light.wav" WAVE
    INDEX 01 00:00:00
 
 
auCDtect Task Manager
-----------------------
DON'T MODIFY THIS FILE
-----------------------
PERFORMER: auCDtect Task Manager, ver. 1.5.1RC6 build 1.5.1.7
Copyright (c) 2008-2010 y-soft. All rights reserved
http://y-soft.org
ANALYZER: auCDtect: CD records authenticity detector, version 0.8.2
Copyright (c) 2004 Oleg Berngardt. All rights reserved.
Copyright (c) 2004 Alexander Djourik. All rights reserved.
FILE: 07 - Light.flac
  Size: 65581378 Hash: 2978EDDE003C0349206C629DE4280D94 Accuracy: -m0
  Conclusion: CDDA 100%
  Signature: 6A148FD5B543471C0FFF0CF1B081CF46C521FF67
FILE: 06 - Bioluminescence.flac
  Size: 43836939 Hash: D7863442A464A2D0AB2E95B3FD7871BB Accuracy: -m0
  Conclusion: CDDA 100%
  Signature: 36D0B7BE667898D9570AB2355FBF41E90DD8F91F
FILE: 05 - Apparent Horizon.flac
  Size: 54115611 Hash: A1AEB362E91D2BB4A7A86F580479A251 Accuracy: -m0
  Conclusion: CDDA 100%
  Signature: E1CBB932F349C7769FF236BDA1D4A4924A5CE136
FILE: 04 - Run To Infinity.flac
  Size: 59954867 Hash: 4F90F017EC73BE134564CAFC1EA09CE2 Accuracy: -m0
  Conclusion: CDDA 100%
  Signature: 83DE156D12F2828A1512472CC6485B6DEEE333B2
FILE: 03 - The Great Glass Elevator.flac
  Size: 48530800 Hash: 3C68A4520E1CBF9B5236B78B7B4D5925 Accuracy: -m0
  Conclusion: CDDA 100%
  Signature: 54B6B252807D30FC1853CA072E62D7DAAA78E136
FILE: 02 - Stars.flac
  Size: 40444315 Hash: 9BC855A468463FDE8CF03B734D82E6DD Accuracy: -m0
  Conclusion: CDDA 100%
  Signature: C0DB1813D96F33D8C0FAF97C424F20F8C6B049C2
FILE: 01 - Absolute Horizon.flac
  Size: 43334150 Hash: DCBA27E9DB3C2DB03CA1B3777E221258 Accuracy: -m0
  Conclusion: CDDA 100%
  Signature: 57CF86E65A6247A439A949B3B2174722A609F886
Any questions -> support@pro-jazz.com. По всем вопросам пишите -> support@pro-jazz.com
22:38
190
Нет комментариев. Ваш будет первым!