Поиск

(Free Improvisation, Contemporary Jazz) [CD] Bobby Previte / Gianluca Petrella / Antonello Salis - Big Guns - 2008, FLAC (image+.cue), lossless

(Free Improvisation, Contemporary Jazz) [CD] Bobby Previte / Gianluca Petrella / Antonello Salis - Big Guns - 2008, FLAC (image+.cue), lossless
Previte, Petrella, Salis / Big Guns
Жанр: Free Improvisation, Contemporary Jazz
Носитель: CD
Страна-производитель диска: Italy
Год издания: 2008
Издатель (лейбл): AUAND
Номер по каталогу: AU9015
Аудиокодек: FLAC (*.flac)
Тип рипа: image+.cue
Битрейт аудио: lossless
Продолжительность: 46:51
Источник (релизер): CD
Наличие сканов в содержимом раздачи: нет
Треклист:
1 Landscape 3:34
2 Twilight Zone 4:48
3 Control Freak 3:13
4 PM 3:58
5 Big Guns 3:21
6 Just Following Orders 7:01
7 The Battle Of Cannae 4:39
8 The Battle Of Zama 3:36
9 Blues For Gio 4:51
10 Profondo Notte
10.1 Five Fifteen 3:29
10.2 Five Twenty Five 3:10
10.3 Five Fifty One 2:09
 
Лог создания рипа
Exact Audio Copy V1.0 beta 2 from 29. April 2011
EAC extraction logfile from 20. January 2014, 11:07
Previte, Petrella, Salis / Big Guns
Used drive : Optiarc DVD RW AD-7170A Adapter: 0 ID: 0
Read mode : Secure
Utilize accurate stream : Yes
Defeat audio cache : Yes
Make use of C2 pointers : No
Read offset correction : 48
Overread into Lead-In and Lead-Out : No
Fill up missing offset samples with silence : Yes
Delete leading and trailing silent blocks : No
Null samples used in CRC calculations : Yes
Used interface : Native Win32 interface for Win NT & 2000
Used output format : User Defined Encoder
Selected bitrate : 320 kBit/s
Quality : High
Add ID3 tag : No
Command line compressor : C:\Program Files\Exact Audio Copy\Flac\flac.exe
Additional command line options : -V -8 -T "Date=%year%" -T "Genre=%genre%" %source%
TOC of the extracted CD
Track | Start | Length | Start sector | End sector
---------------------------------------------------------
1 | 0:00.00 | 3:33.48 | 0 | 16022
2 | 3:33.48 | 4:59.50 | 16023 | 38497
3 | 8:33.23 | 3:14.42 | 38498 | 53089
4 | 11:47.65 | 3:59.56 | 53090 | 71070
5 | 15:47.46 | 5:37.29 | 71071 | 96374
6 | 21:25.00 | 3:21.68 | 96375 | 111517
7 | 24:46.68 | 4:40.11 | 111518 | 132528
8 | 29:27.04 | 3:37.48 | 132529 | 148851
9 | 33:04.52 | 4:57.53 | 148852 | 171179
10 | 38:02.30 | 8:48.62 | 171180 | 210841
Range status and errors
Selected range
Filename K:\ЕАС\Previte, Petrella, Salis - Big Guns.wav
Peak level 96.6 %
Extraction speed 1.9 X
Range quality 100.0 %
Test CRC E349190E
Copy CRC E349190E
Copy OK
No errors occurred
AccurateRip summary
Track 1 accurately ripped (confidence 1) [82A343B7] (AR v2)
Track 2 accurately ripped (confidence 1) [56151E98] (AR v2)
Track 3 accurately ripped (confidence 1) [53DB0765] (AR v2)
Track 4 accurately ripped (confidence 1) [7A1E51A6] (AR v2)
Track 5 accurately ripped (confidence 1) [4F6FAD04] (AR v2)
Track 6 accurately ripped (confidence 1) [DE50F6B9] (AR v2)
Track 7 accurately ripped (confidence 1) [3B3EFAF9] (AR v2)
Track 8 accurately ripped (confidence 1) [51102C60] (AR v2)
Track 9 accurately ripped (confidence 1) [0172B0AB] (AR v2)
Track 10 accurately ripped (confidence 1) [0C139531] (AR v2)
All tracks accurately ripped
End of status report
==== Log checksum 08EEBE2CB166272012AA497BD552E38430E4118C0EFD618AC9488093C49FDF91 ====
 
Содержание индексной карты (.CUE)
REM GENRE Jazz
REM DATE 2008
REM DISCID A10AFB0A
REM COMMENT "ExactAudioCopy v1.0b2"
PERFORMER "Previte, Petrella, Salis"
TITLE "Big Guns"
FILE "Previte, Petrella, Salis - Big Guns.flac" WAVE
TRACK 01 AUDIO
TITLE "Landscape"
PERFORMER "Previte, Petrella, Salis"
ISRC ITM690890125
INDEX 01 00:00:00
TRACK 02 AUDIO
TITLE "Twilight Zone"
PERFORMER "Previte, Petrella, Salis"
ISRC ITM690890126
INDEX 01 03:33:48
TRACK 03 AUDIO
TITLE "Control Freak"
PERFORMER "Previte, Petrella, Salis"
ISRC ITM690890127
INDEX 00 08:31:60
INDEX 01 08:33:23
TRACK 04 AUDIO
TITLE "PM"
PERFORMER "Previte, Petrella, Salis"
ISRC ITM690890128
INDEX 00 11:46:22
INDEX 01 11:47:65
TRACK 05 AUDIO
TITLE "Big Guns"
PERFORMER "Previte, Petrella, Salis"
ISRC ITM690890129
INDEX 00 15:46:13
INDEX 01 15:47:46
TRACK 06 AUDIO
TITLE "Just Following Orders"
PERFORMER "Previte, Petrella, Salis"
ISRC ITM690890130
INDEX 00 21:23:60
INDEX 01 21:25:00
TRACK 07 AUDIO
TITLE "Tha Battle of Cannae"
PERFORMER "Previte, Petrella, Salis"
ISRC ITM690890131
INDEX 01 24:46:68
TRACK 08 AUDIO
TITLE "The Battle of Zama"
PERFORMER "Previte, Petrella, Salis"
ISRC ITM690890132
INDEX 00 29:26:00
INDEX 01 29:27:04
TRACK 09 AUDIO
TITLE "Blues for Gio"
PERFORMER "Previte, Petrella, Salis"
ISRC ITM690890133
INDEX 00 33:03:40
INDEX 01 33:04:52
TRACK 10 AUDIO
TITLE "Profondo Notte"
PERFORMER "Previte, Petrella, Salis"
ISRC ITM690890134
INDEX 00 37:55:53
INDEX 01 38:02:30
Доп. информация: Recorded at Forum Music Village (Rome, Italy) on November 27-28, 2007.
Mixed and mastered in New York on April 2008.
 
Состав
Drums – Bobby Previte
Piano, Organ [Hammond], Electric Piano [Fender Rhodes] – Antonello Salis
Trombone, Effects, Melodica – Gianluca Petrella
22:39
302
Нет комментариев. Ваш будет первым!