Вы используете незарегистрированную версию компонента "Вкладки"!

Поиск

(Avant-Garde Jazz, Free Improvisation) [CD] King Ubu Orchestru (feat. Radu Malfatti, Philipp Wachsmann, Paul Lytton, Bertram Turetzky) - The Concert (Live At Total Music Meeting 2003) - 2004, FLAC (tracks+.cue), lossless

(Avant-Garde Jazz, Free Improvisation) [CD] King Ubu Orchestru (feat. Radu Malfatti, Philipp Wachsmann, Paul Lytton, Bertram Turetzky) - The Concert (Live At Total Music Meeting 2003) - 2004, FLAC (tracks+.cue), lossless
Треклист:
King Ubu Orchestru / The Concert (Live At Total Music Meeting 2003)
Жанр: Avant-Garde Jazz, Free Improvisation
Носитель: CD
Страна-производитель диска: Germany
Год издания: 2004
Издатель (лейбл): a/l/l
Номер по каталогу: a/l/l 009
Страна исполнителя (группы): International
Аудиокодек: FLAC (*.flac)
Тип рипа: tracks+.cue
Битрейт аудио: lossless
Продолжительность: 68:23
Источник (релизер): свой фирменный диск
Наличие сканов в содержимом раздачи:
Треклист:
1. Intro Urs Jaeggi 6:06
2. The Concert 44:32
3. Warming Up 1 5:39
4. Warming Up 2 11:58
 
Лог создания рипа
Exact Audio Copy V1.0 beta 3 from 29. August 2011
EAC extraction logfile from 8. August 2014, 23:23
King Ubu Orchestru / The Concert: Live At Total Music Meeting 2003
Used drive : PIONEER DVD-RW DVR-115D Adapter: 0 ID: 0
Read mode : Secure
Utilize accurate stream : Yes
Defeat audio cache : Yes
Make use of C2 pointers : No
Read offset correction : 48
Overread into Lead-In and Lead-Out : No
Fill up missing offset samples with silence : Yes
Delete leading and trailing silent blocks : No
Null samples used in CRC calculations : Yes
Used interface : Installed external ASPI interface
Gap handling : Appended to previous track
Used output format : User Defined Encoder
Selected bitrate : 896 kBit/s
Quality : High
Add ID3 tag : No
Command line compressor : C:\Program Files\Exact Audio Copy\FLAC\FLAC.EXE
Additional command line options : -6 -V -T "ARTIST=%artist%" -T "TITLE=%title%" -T "ALBUM=%albumtitle%" -T "DATE=%year%" -T "TRACKNUMBER=%tracknr%" -T "GENRE=%genre%" -T "COMMENT=%comment%" -T "BAND=%albuminterpret%" -T "COMPOSER=%composer%" %haslyrics%--tag-from-file=LYRICS="%lyricsfile%"%haslyrics% -T "DISCNUMBER=%cdnumber%" -T "TOTALDISCS=%totalcds%" -T "TOTALTRACKS=%numtracks%" %hascover%--picture="%coverfile%"%hascover% %source% -o %dest%
TOC of the extracted CD
Track | Start | Length | Start sector | End sector
---------------------------------------------------------
1 | 0:00.00 | 6:06.56 | 0 | 27505
2 | 6:06.56 | 44:37.67 | 27506 | 228347
3 | 50:44.48 | 5:39.54 | 228348 | 253826
4 | 56:24.27 | 11:58.43 | 253827 | 307719
Track 1
Filename D:\zzz\01 - Intro Urs Jaeggi.wav
Pre-gap length 0:00:02.00
Peak level 69.4 %
Extraction speed 5.0 X
Track quality 100.0 %
Test CRC 1FC8B23D
Copy CRC 1FC8B23D
Track not present in AccurateRip database
Copy OK
Track 2
Filename D:\zzz\02 - The Concert.wav
Peak level 100.0 %
Extraction speed 7.6 X
Track quality 99.9 %
Test CRC E07FC17B
Copy CRC E07FC17B
Track not present in AccurateRip database
Copy OK
Track 3
Filename D:\zzz\03 - Warming Up 1.wav
Pre-gap length 0:00:05.21
Peak level 100.0 %
Extraction speed 8.6 X
Track quality 100.0 %
Test CRC 8CD3455F
Copy CRC 8CD3455F
Track not present in AccurateRip database
Copy OK
Track 4
Filename D:\zzz\04 - Warming Up 2.wav
Peak level 100.0 %
Extraction speed 9.6 X
Track quality 100.0 %
Test CRC 69648061
Copy CRC 69648061
Track not present in AccurateRip database
Copy OK
None of the tracks are present in the AccurateRip database
No errors occurred
End of status report
==== Log checksum BF3F22040B6DB4F4637A05DBB81FA4A505A3EC971F91D3FB0E320EA3625DEF06 ====
 
Содержание индексной карты (.CUE)
REM GENRE "Free Improvisation"
REM DATE 2004
REM DISCID 34100604
REM COMMENT "ExactAudioCopy v1.0b3"
PERFORMER "King Ubu Orchestru"
TITLE "The Concert: Live At Total Music Meeting 2003"
FILE "01 - Intro Urs Jaeggi.wav" WAVE
TRACK 01 AUDIO
TITLE "Intro Urs Jaeggi"
PERFORMER "King Ubu Orchestru"
INDEX 01 00:00:00
FILE "02 - The Concert.wav" WAVE
TRACK 02 AUDIO
TITLE "The Concert"
PERFORMER "King Ubu Orchestru"
INDEX 01 00:00:00
TRACK 03 AUDIO
TITLE "Warming Up 1"
PERFORMER "King Ubu Orchestru"
INDEX 00 44:32:46
FILE "03 - Warming Up 1.wav" WAVE
INDEX 01 00:00:00
FILE "04 - Warming Up 2.wav" WAVE
TRACK 04 AUDIO
TITLE "Warming Up 2"
PERFORMER "King Ubu Orchestru"
INDEX 01 00:00:00
 
Лог проверки качества
d:\>d:\aucdtect -d/-m0 d:\zzz\*.wav
auCDtect: CD records authenticity detector, version 0.8.2
Copyright (c) 2004 Oleg Berngardt. All rights reserved.
Copyright (c) 2004 Alexander Djourik. All rights reserved.
------------------------------------------------------------
Processing file: [01. Intro Urs Jaeggi.wav]
------------------------------------------------------------
This track looks like CDDA with probability 100%
------------------------------------------------------------
Processing file: [02. The Concert.wav]
------------------------------------------------------------
This track looks like CDDA with probability 87%
------------------------------------------------------------
Processing file: [03. Warming Up 1.wav]
------------------------------------------------------------
This track looks like CDDA with probability 100%
------------------------------------------------------------
Processing file: [04. Warming Up 2.wav]
------------------------------------------------------------
Could not qualify the source of this track.
------------------------------------------------------------
Final Conclusion:
------------------------------------------------------------
These tracks looks like CDDA with probability 100%
Доп. информация:
 
Album Info
All music by Fuchs, van Bergen, Malfatti, Poore, Wachsmann, LeBaron, Turetzky, Grillo, Lytton, Bart-Greiner, Minton, Aljinovic
Recorded live at the Total Music Meeting in Berlin on Nov 7 & 8, 2003 by Hrolfur Vagnsson
Assistance: Carsten Klopfer
Mixed and mastered by Hrolfur Vagnsson & Wolfgang Fuchs
Produced by Helma Schleif, John Rottiers, Peter van Bergen, Phil Wachsmann, Melvyn Poore, Wolfgang Fuchs
Design: wppt:kommunikation, Klaus Untiet, Wuppertal
Drawings from Franciszka Themerson, Ubu Comic Strip, 1970
Liner notes: Wolfgang Fuchs, August 8, 2004 / Urs Jaeggi, November 8, 2003 / Phil Minton / Melvyn Poore / Bertram Turetzky / John Rottiers, presenter of Radio Centraal, Antwerp, July 6th, 2004 / Werner Merz / Nick Wadley
Poem for King Ubu Orchestru: Anne LeBaron, May 26, 2004
 
Состав
Wolfgang Fuchs: contrabass clarinet, bass clarinet, sopranino sax
Peter Van Bergen: tenor sax
Radu Malfatti: trombone
Melvyn Poore: tuba
Phil Wachsmann: violin, live electronics
Anne LeBaron: harp
Bertram Turetzky: double bass
Fernando Grillo: double bass
Paul Lytton: percussion, live electronics
Guest vocalists:
Boris Aljinovic: actor/speaker
Phil Minton: voice
Irena Bart-Greiner: soprano
По всем вопросам пишите личное сообщение пользователю M0p94ok.
05:29
278
Нет комментариев. Ваш будет первым!