Вы используете незарегистрированную версию компонента "Вкладки"!

Поиск

(Free Jazz, Avant-Garde Jazz, Discus) [CD] Martin Archer - Blue Meat, Black Diesel & Engine Room Favourites - 2013, FLAC (tracks+.cue), lossless

(Free Jazz, Avant-Garde Jazz, Discus) [CD] Martin Archer - Blue Meat, Black Diesel & Engine Room Favourites - 2013, FLAC (tracks+.cue), lossless
Треклист:
Martin Archer / Blue Meat, Black Diesel & Engine Room Favourites
Жанр: Free Jazz, Avant-Garde Jazz, Discus
Носитель: CD
Страна-производитель диска: UK
Год издания: 2013
Издатель (лейбл): Discus Records
Номер по каталогу: Discus 43CD
Страна исполнителя (группы): UK
Аудиокодек: FLAC (*.flac)
Тип рипа: tracks+.cue
Битрейт аудио: lossless
Продолжительность: 70:47
Источник (релизер): свой фирменный диск
Наличие сканов в содержимом раздачи:
Треклист:
1. Engine Room Induction 4m
2. Of The Above 25m
Blue Meat, Black Diesel & Engine Room Favourites 42m
3. untitled
4. untitled
5. untitled
6. untitled
7. untitled
8. untitled
9. untitled
10. untitled
 
Лог создания рипа
Exact Audio Copy V1.0 beta 3 from 29. August 2011
EAC extraction logfile from 3. September 2014, 22:45
Martin Archer / Blue Meat, Black Diesel & Engine Room Favourites
Used drive : PIONEER DVD-RW DVR-115D Adapter: 0 ID: 0
Read mode : Secure
Utilize accurate stream : Yes
Defeat audio cache : Yes
Make use of C2 pointers : No
Read offset correction : 48
Overread into Lead-In and Lead-Out : No
Fill up missing offset samples with silence : Yes
Delete leading and trailing silent blocks : No
Null samples used in CRC calculations : Yes
Used interface : Installed external ASPI interface
Gap handling : Appended to previous track
Used output format : User Defined Encoder
Selected bitrate : 768 kBit/s
Quality : High
Add ID3 tag : No
Command line compressor : C:\Program Files\Exact Audio Copy\Flac\flac.exe
Additional command line options : -6 -V -T "ARTIST=%artist%" -T "TITLE=%title%" -T "ALBUM=%albumtitle%" -T "DATE=%year%" -T "TRACKNUMBER=%tracknr%" -T "GENRE=%genre%" -T "COMMENT=%comment%" -T "BAND=%albuminterpret%" -T "COMPOSER=%composer%" %haslyrics%--tag-from-file=LYRICS="%lyricsfile%"%haslyrics% -T "DISCNUMBER=%cdnumber%" -T "TOTALDISCS=%totalcds%" -T "TOTALTRACKS=%numtracks%" %hascover%--picture="%coverfile%"%hascover% %source% -o %dest%
TOC of the extracted CD
Track | Start | Length | Start sector | End sector
---------------------------------------------------------
1 | 0:00.00 | 4:22.57 | 0 | 19706
2 | 4:22.57 | 24:45.68 | 19707 | 131149
3 | 29:08.50 | 5:18.36 | 131150 | 155035
4 | 34:27.11 | 4:20.22 | 155036 | 174557
5 | 38:47.33 | 4:47.01 | 174558 | 196083
6 | 43:34.34 | 6:51.50 | 196084 | 226958
7 | 50:26.09 | 6:40.39 | 226959 | 256997
8 | 57:06.48 | 4:12.69 | 256998 | 275966
9 | 61:19.42 | 6:49.23 | 275967 | 306664
10 | 68:08.65 | 2:38.31 | 306665 | 318545
Track 1
Filename D:\zzz\01 - Engine Room Induction.wav
Pre-gap length 0:00:02.00
Peak level 96.8 %
Extraction speed 4.4 X
Track quality 100.0 %
Test CRC 1F673E87
Copy CRC 1F673E87
Track not present in AccurateRip database
Copy OK
Track 2
Filename D:\zzz\02 - Of The Above.wav
Pre-gap length 0:00:05.00
Peak level 100.0 %
Extraction speed 6.3 X
Track quality 100.0 %
Test CRC 437DB2EB
Copy CRC 437DB2EB
Track not present in AccurateRip database
Copy OK
Track 3
Filename D:\zzz\03 - Blue Meat, Black Diesel & Engine Room Favourites I.wav
Pre-gap length 0:00:05.00
Peak level 77.1 %
Extraction speed 6.9 X
Track quality 100.0 %
Test CRC 041AA31F
Copy CRC 041AA31F
Track not present in AccurateRip database
Copy OK
Track 4
Filename D:\zzz\04 - Blue Meat, Black Diesel & Engine Room Favourites II.wav
Peak level 92.9 %
Extraction speed 6.3 X
Track quality 99.9 %
Test CRC 3EAB46C4
Copy CRC 3EAB46C4
Track not present in AccurateRip database
Copy OK
Track 5
Filename D:\zzz\05 - Blue Meat, Black Diesel & Engine Room Favourites III.wav
Peak level 96.2 %
Extraction speed 7.4 X
Track quality 100.0 %
Test CRC B56C6A1F
Copy CRC B56C6A1F
Track not present in AccurateRip database
Copy OK
Track 6
Filename D:\zzz\06 - Blue Meat, Black Diesel & Engine Room Favourites IV.wav
Peak level 54.8 %
Extraction speed 7.4 X
Track quality 99.9 %
Test CRC 4944C7F7
Copy CRC 4944C7F7
Track not present in AccurateRip database
Copy OK
Track 7
Filename D:\zzz\07 - Blue Meat, Black Diesel & Engine Room Favourites V.wav
Peak level 94.3 %
Extraction speed 8.3 X
Track quality 100.0 %
Test CRC FA4B30B1
Copy CRC FA4B30B1
Track not present in AccurateRip database
Copy OK
Track 8
Filename D:\zzz\08 - Blue Meat, Black Diesel & Engine Room Favourites VI.wav
Peak level 96.7 %
Extraction speed 8.2 X
Track quality 100.0 %
Test CRC 691C7AE7
Copy CRC 691C7AE7
Track not present in AccurateRip database
Copy OK
Track 9
Filename D:\zzz\09 - Blue Meat, Black Diesel & Engine Room Favourites VII.wav
Peak level 96.8 %
Extraction speed 8.9 X
Track quality 100.0 %
Test CRC 44067859
Copy CRC 44067859
Track not present in AccurateRip database
Copy OK
Track 10
Filename D:\zzz\10 - Blue Meat, Black Diesel & Engine Room Favourites VIII.wav
Peak level 96.7 %
Extraction speed 8.0 X
Track quality 100.0 %
Test CRC 064059F4
Copy CRC 064059F4
Track not present in AccurateRip database
Copy OK
None of the tracks are present in the AccurateRip database
No errors occurred
End of status report
==== Log checksum 5E6F2E07EAECA05EE811C6C4F9DA23CADA1CA81642F140BA539F4D97B3FEC99F ====
 
Содержание индексной карты (.CUE)
REM GENRE "Free Jazz"
REM DATE 2013
REM DISCID 8810970A
REM COMMENT "ExactAudioCopy v1.0b3"
PERFORMER "Martin Archer"
TITLE "Blue Meat, Black Diesel & Engine Room Favourites"
FILE "01 - Engine Room Induction.wav" WAVE
TRACK 01 AUDIO
TITLE "Engine Room Induction"
PERFORMER "Martin Archer"
INDEX 01 00:00:00
TRACK 02 AUDIO
TITLE "Of The Above"
PERFORMER "Martin Archer"
INDEX 00 04:17:57
FILE "02 - Of The Above.wav" WAVE
INDEX 01 00:00:00
TRACK 03 AUDIO
TITLE "Blue Meat, Black Diesel & Engine Room Favourites I"
PERFORMER "Martin Archer"
INDEX 00 24:40:68
FILE "03 - Blue Meat, Black Diesel & Engine Room Favourites I.wav" WAVE
INDEX 01 00:00:00
FILE "04 - Blue Meat, Black Diesel & Engine Room Favourites II.wav" WAVE
TRACK 04 AUDIO
TITLE "Blue Meat, Black Diesel & Engine Room Favourites II"
PERFORMER "Martin Archer"
INDEX 01 00:00:00
FILE "05 - Blue Meat, Black Diesel & Engine Room Favourites III.wav" WAVE
TRACK 05 AUDIO
TITLE "Blue Meat, Black Diesel & Engine Room Favourites III"
PERFORMER "Martin Archer"
INDEX 01 00:00:00
FILE "06 - Blue Meat, Black Diesel & Engine Room Favourites IV.wav" WAVE
TRACK 06 AUDIO
TITLE "Blue Meat, Black Diesel & Engine Room Favourites IV"
PERFORMER "Martin Archer"
INDEX 01 00:00:00
FILE "07 - Blue Meat, Black Diesel & Engine Room Favourites V.wav" WAVE
TRACK 07 AUDIO
TITLE "Blue Meat, Black Diesel & Engine Room Favourites V"
PERFORMER "Martin Archer"
INDEX 01 00:00:00
FILE "08 - Blue Meat, Black Diesel & Engine Room Favourites VI.wav" WAVE
TRACK 08 AUDIO
TITLE "Blue Meat, Black Diesel & Engine Room Favourites VI"
PERFORMER "Martin Archer"
INDEX 01 00:00:00
FILE "09 - Blue Meat, Black Diesel & Engine Room Favourites VII.wav" WAVE
TRACK 09 AUDIO
TITLE "Blue Meat, Black Diesel & Engine Room Favourites VII"
PERFORMER "Martin Archer"
INDEX 01 00:00:00
FILE "10 - Blue Meat, Black Diesel & Engine Room Favourites VIII.wav" WAVE
TRACK 10 AUDIO
TITLE "Blue Meat, Black Diesel & Engine Room Favourites VIII"
PERFORMER "Martin Archer"
INDEX 01 00:00:00
 
Лог проверки качества
d:\>d:\aucdtect -d/-m0 d:\zzz\*.wav
auCDtect: CD records authenticity detector, version 0.8.2
Copyright (c) 2004 Oleg Berngardt. All rights reserved.
Copyright (c) 2004 Alexander Djourik. All rights reserved.
------------------------------------------------------------
Processing file: [01. Engine Room Induction.wav]
------------------------------------------------------------
This track looks like CDDA with probability 100%
------------------------------------------------------------
Processing file: [02. Of The Above.wav]
------------------------------------------------------------
This track looks like CDDA with probability 100%
------------------------------------------------------------
Processing file: [03. Blue Meat, Black Diesel & Engine Room Favourites I.wav]
------------------------------------------------------------
This track looks like CDDA with probability 100%
------------------------------------------------------------
Processing file: [04. Blue Meat, Black Diesel & Engine Room Favourites II.wav]
------------------------------------------------------------
This track looks like CDDA with probability 100%
------------------------------------------------------------
Processing file: [05. Blue Meat, Black Diesel & Engine Room Favourites III.wav]
------------------------------------------------------------
This track looks like CDDA with probability 100%
------------------------------------------------------------
Processing file: [06. Blue Meat, Black Diesel & Engine Room Favourites IV.wav]
------------------------------------------------------------
This track looks like CDDA with probability 100%
------------------------------------------------------------
Processing file: [07. Blue Meat, Black Diesel & Engine Room Favourites V.wav]
------------------------------------------------------------
This track looks like CDDA with probability 100%
------------------------------------------------------------
Processing file: [08. Blue Meat, Black Diesel & Engine Room Favourites VI.wav]
------------------------------------------------------------
This track looks like CDDA with probability 99%
------------------------------------------------------------
Processing file: [09. Blue Meat, Black Diesel & Engine Room Favourites VII.wav]
------------------------------------------------------------
This track looks like CDDA with probability 99%
------------------------------------------------------------
Processing file: [10. Blue Meat, Black Diesel & Engine Room Favourites VIII.wav]
------------------------------------------------------------
This track looks like CDDA with probability 100%
------------------------------------------------------------
Final Conclusion:
------------------------------------------------------------
These tracks looks like CDDA with probability 100%
Доп. информация:
 
Album Info & AAJ Review
Recorded 2012-2013 at Yellowarch Studio, Sheffield by Robin Downe, at Piano Recording, Sheffield by James Bacon and at Discus Music Studio, Sheffield by Martin Archer
Produced by Archer / Fairclough
Mastered by Ian Stead
Manufactured by Akcent Media
Cover painting by Martin Decent
The continuing appeal of AACM style music to me is that it remains considered, spacious and open, but without sacrificing any of the improvisational heat and energy which place its exponent players firmly in the avantgarde tradition: plus, even at its most abstract, it never strays too far from the blues.
I'd like to thank Pete Fairclough, who has contributed considerably to the realisation of this work. - Martin Archer, Sheffield UK, March 2013.
One never knows what direction British multi-reedman Martin Archer will impart as he surges forward in a stealthy world of avant-jazz, electronics, or discombobulated jazz-rock. Hands down, he's one of the more creative musical souls on mother earth. Each new album marks a distinct journey. His fresh outlook and cornucopia of disparate concepts, executed with large and small ensembles—along with several albums collaborating with legendary British vocalist Julie Tippetts—represent a succession of distinguished agendas. Here, Archer's bountiful resourcefulness once again shines radiantly within a large ensemble format, where not all the musicians perform in concurrent fashion.
The album title might allude to a loud industrial-music type program, but in actuality, Archer cites the Chicago-based Association for the Advancement of Creative Musicians (AACM) as a major influence within the album notes. Comprised of three extended works, each piece is a study in semi-free jazz, incorporating capacious characteristics and an open forum for the artists to expand their wares. It's cohesive, but almost anything goes via the whirlwind tour. Dual percussionists and drummers, strings, horns and vibes all play significant parts amid an incessant reinvention process. On "Of the Above," violinist Graham Clark expresses lament leading to the band's aerial bombardment, spanning creaky sax notes and brash breakouts, and segueing back to the violinist's sonorous passages along with pianist Laura Cole's lush chord developments. Numerous contrasts and unexpected delights abound.
The final track "Blue Meat, Black Diesel & Engine Room Favorites" is partitioned as a multi-part suite. Here, asymmetrical horns, low- key rumblings and harmonically appealing choruses, hinging on traditional jazz and blues, are intersecting components of a lengthy journey. Add Clark's sweet violin phrasings and Corey Mwamba's cool and jazzy vibes work to a medley of cleverly concocted abstracts and temperate moments, and notions of an avant-garde film soundtrack come to mind. Nonetheless, Archer synchronizes an attainable blend of discordant mini-themes with harmonious passages throughout much of the program. A mark of invention along with qualitative factors has become a telltale constant within Archer's diverse discography. This 2013 release is yet another example of his far-reaching proclivities and fertile imaginative powers. - Glenn Astarita ALL ABOUT JAZZ
 
Состав
Martin Archer: sopranino, alto and baritone saxophones, bass clarinet, bass recorder, bass harmonica
with (left to right):
Walt Shaw: percussion
Johnny Hunter: drums and percussion
Peter Fairclough: drums and percussion
Steve Dinsdale: percussion
Graham Clark: violin
Laura Cole: piano
Corey Mwamba: vibraphone
Seth Bennett: double bass
Kim Macari: trumpet
Lee Hallam: trombone
James Archer: bass clarinet
По всем вопросам пишите личное сообщение пользователю M0p94ok.
05:30
212
Нет комментариев. Ваш будет первым!