Вы используете незарегистрированную версию компонента "Вкладки"!

Поиск

(free jazz, avant-garde) [cd] Instant Composers Pool Orchestra - ICP Box (2012, Anthology), 52 штуки, FLAC (tracks+.cue), lossless

(free jazz, avant-garde) [cd] Instant Composers Pool Orchestra - ICP Box (2012, Anthology), 52 штуки, FLAC (tracks+.cue), lossless
Треклист:
(free jazz, avant-garde) [cd] Instant Composers Pool Orchestra - ICP Box (2012, Anthology), 52 штуки, FLAC (tracks+.cue), lossless


Instant Composers Pool Orchestra - ICP Box (2012, Anthology)

Жанр: free jazz, avant-garde
Год выпуска: 2012
Издатель (лейбл):ICP1275-1
Формат: FLAC (tracks+.cue)
Битрейт аудио: lossless
Продолжительность
Источник: what.cd, 6060842

000 - 1967 - ICP Orchestra - Recordings from 1967

1 Die Berge Schützen Die Heimat 9:06
2 Jump Italiano 5:43
3 Adebar Der Geheimnisvolle 8:18
4 Piano Distance I 5:27
5 Before Og 15 Kir 9:56
6 September Song 13:12
 
.log
X Lossless Decoder version 20140504 (147.0)
XLD extraction logfile from 2014-10-14 00:04:01 +0400
ICP Orchestra / Recordings from 1967
Used drive : HL-DT-ST DVDRW GX30N (revision RP09)
Media type : Pressed CD
Ripper mode : XLD Secure Ripper
Disable audio cache : OK for the drive with a cache less than 1375KiB
Make use of C2 pointers : NO
Read offset correction : 6
Max retry count : 10000
Gap status : Analyzed, Appended (except HTOA)
TOC of the extracted CD
Track | Start | Length | Start sector | End sector
---------------------------------------------------------
1 | 00:01:00 | 09:08:56 | 75 | 41230
2 | 09:09:56 | 05:45:24 | 41231 | 67129
3 | 14:55:05 | 08:20:53 | 67130 | 104682
4 | 23:15:58 | 05:30:62 | 104683 | 129494
5 | 28:46:45 | 09:56:48 | 129495 | 174242
6 | 38:43:18 | 13:10:68 | 174243 | 233560
AccurateRip Summary (DiscID: 000b7352-003d8037-580c2906)
Track 01 : OK (v1+v2, confidence 2/2)
Track 02 : OK (v1+v2, confidence 2/2)
Track 03 : OK (v1+v2, confidence 2/2)
Track 04 : OK (v1+v2, confidence 2/2)
Track 05 : OK (v1+v2, confidence 2/2)
Track 06 : OK (v1+v2, confidence 2/2)
->All tracks accurately ripped.
All Tracks
Album gain : -1.95 dB
Peak : 0.999939
Statistics
Read error : 0
Jitter error (maybe fixed) : 0
Retry sector count : 0
Damaged sector count : 0
Track 01
Filename : /Users/Shared/Grabbed/ICP Box/1967 - ICP Orchestra - Recordings from 1967/01 - Die Berge Schutzen die Heimat.flac
Pre-gap length : 00:03:00
Track gain : -1.65 dB
Peak : 0.966034
CRC32 hash (test run) : DDA912BB
CRC32 hash : DDA912BB
CRC32 hash (skip zero) : 4D41DB01
AccurateRip v1 signature : 7CE8B9A4
AccurateRip v2 signature : 59728498
->Accurately ripped (v1+v2, confidence 1+1/2)
Statistics
Read error : 0
Jitter error (maybe fixed) : 0
Retry sector count : 0
Damaged sector count : 0
Track 02
Filename : /Users/Shared/Grabbed/ICP Box/1967 - ICP Orchestra - Recordings from 1967/02 - Jump Italiano.flac
Pre-gap length : 00:03:00
Track gain : -4.67 dB
Peak : 0.966034
CRC32 hash (test run) : E7534594
CRC32 hash : E7534594
CRC32 hash (skip zero) : 27A82525
AccurateRip v1 signature : 173AD137
AccurateRip v2 signature : C35886BD
->Accurately ripped (v1+v2, confidence 1+1/2)
Statistics
Read error : 0
Jitter error (maybe fixed) : 0
Retry sector count : 0
Damaged sector count : 0
Track 03
Filename : /Users/Shared/Grabbed/ICP Box/1967 - ICP Orchestra - Recordings from 1967/03 - Adebar der Geheimnisvolle.flac
Pre-gap length : 00:03:00
Track gain : -2.20 dB
Peak : 0.966034
CRC32 hash (test run) : 648907D6
CRC32 hash : 648907D6
CRC32 hash (skip zero) : AFA9DDAE
AccurateRip v1 signature : CD32A003
AccurateRip v2 signature : 821AD4BB
->Accurately ripped (v1+v2, confidence 1+1/2)
Statistics
Read error : 0
Jitter error (maybe fixed) : 0
Retry sector count : 0
Damaged sector count : 0
Track 04
Filename : /Users/Shared/Grabbed/ICP Box/1967 - ICP Orchestra - Recordings from 1967/04 - Piano Distance.flac
Pre-gap length : 00:03:00
Track gain : 8.59 dB
Peak : 0.874725
CRC32 hash (test run) : B2FA0EEE
CRC32 hash : B2FA0EEE
CRC32 hash (skip zero) : 82FD0F06
AccurateRip v1 signature : 24CE95BE
AccurateRip v2 signature : 14AE4654
->Accurately ripped (v1+v2, confidence 1+1/2)
Statistics
Read error : 0
Jitter error (maybe fixed) : 0
Retry sector count : 0
Damaged sector count : 0
Track 05
Filename : /Users/Shared/Grabbed/ICP Box/1967 - ICP Orchestra - Recordings from 1967/05 - Before Og 15 Kir.flac
Pre-gap length : 00:03:00
Track gain : -1.05 dB
Peak : 0.966003
CRC32 hash (test run) : 571B99FC
CRC32 hash : 571B99FC
CRC32 hash (skip zero) : 44364F55
AccurateRip v1 signature : 70D86DF3
AccurateRip v2 signature : 00C8D3E3
->Accurately ripped (v1+v2, confidence 1+1/2)
Statistics
Read error : 0
Jitter error (maybe fixed) : 0
Retry sector count : 0
Damaged sector count : 0
Track 06
Filename : /Users/Shared/Grabbed/ICP Box/1967 - ICP Orchestra - Recordings from 1967/06 - September Song.flac
Pre-gap length : 00:03:00
Track gain : -0.71 dB
Peak : 0.999939
CRC32 hash (test run) : 946EE500
CRC32 hash : 946EE500
CRC32 hash (skip zero) : F204955D
AccurateRip v1 signature : 4335F5F0
AccurateRip v2 signature : DBD086CF
->Accurately ripped (v1+v2, confidence 1+1/2)
Statistics
Read error : 0
Jitter error (maybe fixed) : 0
Retry sector count : 0
Damaged sector count : 0
No errors occurred
End of status report
-----BEGIN XLD SIGNATURE-----
eXCjv4.aGRV1Df.NbZEYOs_2zibLcadi6POIS5znNNkCuA2DsqyumuMddbFBl6qAB2wZR1zb.XzGeNd9wRIScbs3HmQs3GHjl.wJEYe
-----END XLD SIGNATURE-----
 
.cue
TITLE "Recordings from 1967"
PERFORMER "ICP Orchestra"
REM GENRE "Free Jazz"
REM DATE "1967"
REM DISCNUMBER 1
REM TOTALDISCS 1
REM DISCID 580C2906
REM REPLAYGAIN_ALBUM_GAIN -1.95 dB
REM REPLAYGAIN_ALBUM_PEAK 0.999939
FILE "01 - Die Berge Schutzen die Heimat.flac" WAVE
TRACK 01 AUDIO
TITLE "Die Berge Schützen die Heimat"
PERFORMER "ICP Orchestra"
SONGWRITER "Misha Mengelberg"
ISRC NLB151201252
REM COMMENT "Recorded June 19th, 1967 at VARA Studio 5 in Hilversum"
REM REPLAYGAIN_TRACK_GAIN -1.65 dB
REM REPLAYGAIN_TRACK_PEAK 0.966034
PREGAP 00:01:00
INDEX 01 00:00:00
TRACK 02 AUDIO
TITLE "Jump Italiano"
PERFORMER "ICP Orchestra"
SONGWRITER "Misha Mengelberg"
ISRC NLB151201253
REM COMMENT "Recorded June 19th, 1967 at VARA Studio 5 in Hilversum"
REM REPLAYGAIN_TRACK_GAIN -4.67 dB
REM REPLAYGAIN_TRACK_PEAK 0.966034
INDEX 00 09:05:56
FILE "02 - Jump Italiano.flac" WAVE
INDEX 01 00:00:00
TRACK 03 AUDIO
TITLE "Adebar der Geheimnisvolle"
PERFORMER "ICP Orchestra"
SONGWRITER "Willem Breuker"
ISRC NLB151201254
REM COMMENT "Recorded July 19th, 1967 at VARA Studio in Hilversum"
REM REPLAYGAIN_TRACK_GAIN -2.20 dB
REM REPLAYGAIN_TRACK_PEAK 0.966034
INDEX 00 05:42:24
FILE "03 - Adebar der Geheimnisvolle.flac" WAVE
INDEX 01 00:00:00
TRACK 04 AUDIO
TITLE "Piano Distance"
PERFORMER "ICP Orchestra"
SONGWRITER "Willem Breuker"
ISRC NLB151201255
REM COMMENT "Recorded July 19th, 1967 at VARA Studio in Hilversum"
REM REPLAYGAIN_TRACK_GAIN 8.59 dB
REM REPLAYGAIN_TRACK_PEAK 0.874725
INDEX 00 08:17:53
FILE "04 - Piano Distance.flac" WAVE
INDEX 01 00:00:00
TRACK 05 AUDIO
TITLE "Before Og 15 Kir"
PERFORMER "ICP Orchestra"
SONGWRITER "Willem Breuker"
ISRC NLB151201256
REM COMMENT "Recorded July 19th, 1967 at VARA Studio in Hilversum"
REM REPLAYGAIN_TRACK_GAIN -1.05 dB
REM REPLAYGAIN_TRACK_PEAK 0.966003
INDEX 00 05:27:62
FILE "05 - Before Og 15 Kir.flac" WAVE
INDEX 01 00:00:00
TRACK 06 AUDIO
TITLE "September Song"
PERFORMER "ICP Orchestra"
SONGWRITER "Theo Loevendie"
ISRC NLB151201257
REM COMMENT "August 25th, 1967 at VARA Studio, Hilversum"
REM REPLAYGAIN_TRACK_GAIN -0.71 dB
REM REPLAYGAIN_TRACK_PEAK 0.999939
INDEX 00 09:53:48
FILE "06 - September Song.flac" WAVE
INDEX 01 00:00:00
 
001 - 1967 - Han Bennink, Willem Breuker - New Acoustic Swing Duo

1 Music For John Tchicai 7:45
2 Felix Meritis And B.V. 4:35
3 I.C.P. 1 For Maarten Derksen 1:40
4 Singing The Impalpable Blues 3:15
5 Mr M.A. De R. In A. 3:20
6 Gamut 21:16
 
.log
X Lossless Decoder version 20140504 (147.0)
XLD extraction logfile from 2014-10-13 23:37:19 +0400
Han Bennink, Willem Breuker / New Acoustic Swing Duo
Used drive : HL-DT-ST DVDRW GX30N (revision RP09)
Media type : Pressed CD
Ripper mode : XLD Secure Ripper
Disable audio cache : OK for the drive with a cache less than 1375KiB
Make use of C2 pointers : NO
Read offset correction : 6
Max retry count : 10000
Gap status : Analyzed, Appended (except HTOA)
TOC of the extracted CD
Track | Start | Length | Start sector | End sector
---------------------------------------------------------
1 | 00:00:00 | 07:26:51 | 0 | 33500
2 | 07:26:51 | 04:41:60 | 33501 | 54635
3 | 12:08:36 | 01:43:58 | 54636 | 62418
4 | 13:52:19 | 03:02:03 | 62419 | 76071
5 | 16:54:22 | 03:22:16 | 76072 | 91237
6 | 20:16:38 | 20:41:41 | 91238 | 184353
AccurateRip Summary (DiscID: 0007a9cc-00292e65-3f099a06)
Track 01 : OK (v1+v2, confidence 2/2)
Track 02 : OK (v1+v2, confidence 2/2)
Track 03 : OK (v1+v2, confidence 2/2)
Track 04 : OK (v1+v2, confidence 2/2)
Track 05 : OK (v1+v2, confidence 2/2)
Track 06 : OK (v1+v2, confidence 2/2)
->All tracks accurately ripped.
All Tracks
Album gain : -1.48 dB
Peak : 0.822754
Statistics
Read error : 0
Jitter error (maybe fixed) : 0
Retry sector count : 0
Damaged sector count : 0
Track 01
Filename : /Users/Shared/Grabbed/ICP Box/1967 - Han Bennink, Willem Breuker - New Acoustic Swing Duo/01 - Music for John Tchicai.flac
Pre-gap length : 00:02:00
Track gain : -2.08 dB
Peak : 0.822754
CRC32 hash (test run) : 1A9BFE1B
CRC32 hash : 1A9BFE1B
CRC32 hash (skip zero) : 640BBE1A
AccurateRip v1 signature : 4F3EC95C
AccurateRip v2 signature : BA3E2700
->Accurately ripped (v1+v2, confidence 1+1/2)
Statistics
Read error : 0
Jitter error (maybe fixed) : 0
Retry sector count : 0
Damaged sector count : 0
Track 02
Filename : /Users/Shared/Grabbed/ICP Box/1967 - Han Bennink, Willem Breuker - New Acoustic Swing Duo/02 - Felix Meritis and B. V..flac
Track gain : 0.16 dB
Peak : 0.647766
CRC32 hash (test run) : 5A4E9B90
CRC32 hash : 5A4E9B90
CRC32 hash (skip zero) : 56D076E8
AccurateRip v1 signature : 81D8820F
AccurateRip v2 signature : 759275AD
->Accurately ripped (v1+v2, confidence 1+1/2)
Statistics
Read error : 0
Jitter error (maybe fixed) : 0
Retry sector count : 0
Damaged sector count : 0
Track 03
Filename : /Users/Shared/Grabbed/ICP Box/1967 - Han Bennink, Willem Breuker - New Acoustic Swing Duo/03 - I.C.P. 1 for Maarten Derksen.flac
Track gain : -2.10 dB
Peak : 0.626129
CRC32 hash (test run) : 13410EB4
CRC32 hash : 13410EB4
CRC32 hash (skip zero) : 4F1EA5AB
AccurateRip v1 signature : 69035856
AccurateRip v2 signature : ADE111B9
->Accurately ripped (v1+v2, confidence 1+1/2)
Statistics
Read error : 0
Jitter error (maybe fixed) : 0
Retry sector count : 0
Damaged sector count : 0
Track 04
Filename : /Users/Shared/Grabbed/ICP Box/1967 - Han Bennink, Willem Breuker - New Acoustic Swing Duo/04 - Singing the Impalpable Blues.flac
Track gain : -0.08 dB
Peak : 0.688141
CRC32 hash (test run) : EC5D0B46
CRC32 hash : EC5D0B46
CRC32 hash (skip zero) : 822B93B2
AccurateRip v1 signature : 1782221D
AccurateRip v2 signature : 85BE7710
->Accurately ripped (v1+v2, confidence 1+1/2)
Statistics
Read error : 0
Jitter error (maybe fixed) : 0
Retry sector count : 0
Damaged sector count : 0
Track 05
Filename : /Users/Shared/Grabbed/ICP Box/1967 - Han Bennink, Willem Breuker - New Acoustic Swing Duo/05 - Mr. M. A. de R. in A..flac
Track gain : 0.38 dB
Peak : 0.582672
CRC32 hash (test run) : B1B7B48B
CRC32 hash : B1B7B48B
CRC32 hash (skip zero) : 7DFEC114
AccurateRip v1 signature : 7CA69394
AccurateRip v2 signature : 1C343BD8
->Accurately ripped (v1+v2, confidence 1+1/2)
Statistics
Read error : 0
Jitter error (maybe fixed) : 0
Retry sector count : 0
Damaged sector count : 0
Track 06
Filename : /Users/Shared/Grabbed/ICP Box/1967 - Han Bennink, Willem Breuker - New Acoustic Swing Duo/06 - Gamut.flac
Track gain : -1.58 dB
Peak : 0.803680
CRC32 hash (test run) : D21A9BF1
CRC32 hash : D21A9BF1
CRC32 hash (skip zero) : 0AB48791
AccurateRip v1 signature : E2CDDACE
AccurateRip v2 signature : 99E6C734
->Accurately ripped (v1+v2, confidence 1+1/2)
Statistics
Read error : 0
Jitter error (maybe fixed) : 0
Retry sector count : 0
Damaged sector count : 0
No errors occurred
End of status report
-----BEGIN XLD SIGNATURE-----
RtrSXeZnBZ1yK61QMmT5iDkt8ParjjkMoiZJGZyKSXrI0zGLWL90Gdhw6HKUvIpe8X0GYt3beoTSZs4usPrgQhVRkE_X4szEgo9Sxs8
-----END XLD SIGNATURE-----
 
.cue
TITLE "New Acoustic Swing Duo"
PERFORMER "Han Bennink, Willem Breuker"
REM GENRE "Free Jazz"
REM DATE "1967"
REM DISCNUMBER 1
REM TOTALDISCS 1
REM DISCID 3F099A06
REM REPLAYGAIN_ALBUM_GAIN -1.48 dB
REM REPLAYGAIN_ALBUM_PEAK 0.822754
FILE "01 - Music for John Tchicai.flac" WAVE
TRACK 01 AUDIO
TITLE "Music for John Tchicai"
PERFORMER "Han Bennink, Willem Breuker"
SONGWRITER "Han Bennink, Willem Breuker"
ISRC NLB151200434
REM COMMENT "Drums, Percussion [Bass Drum, Small & Large Tom Toms, Street Parade Drum, Snare Drum, Tabla, Banya, Vibrapan, Homemade Rattles, Cow & Temple Bells, Chinese 7inch Giant Cymbals, Scraper, Chinese Temple Blocks, Hi-hat, Iron And Wooden Sticks], Voice – Han Bennink Saxophone [Soprano, Alto, Tenor], Clarinet [Eb, Bass], Composed By – Willem Breuker Recorded on November 19 and December 10, 1967 at Felix Meritis, Amsterdam, The Netherlands. Recorded on B & O Beocord 2000 de Luxe, using two Sennheiser MD 421 microphones and BASF tape. Engineer – Gerard Van Beusekom Artwork By [Cover] – Han Bennink"
REM REPLAYGAIN_TRACK_GAIN -2.08 dB
REM REPLAYGAIN_TRACK_PEAK 0.822754
INDEX 01 00:00:00
FILE "02 - Felix Meritis and B. V..flac" WAVE
TRACK 02 AUDIO
TITLE "Felix Meritis and B. V."
PERFORMER "Han Bennink, Willem Breuker"
SONGWRITER "Han Bennink, Willem Breuker"
ISRC NLB151200435
REM COMMENT "Drums, Percussion [Bass Drum, Small & Large Tom Toms, Street Parade Drum, Snare Drum, Tabla, Banya, Vibrapan, Homemade Rattles, Cow & Temple Bells, Chinese 7inch Giant Cymbals, Scraper, Chinese Temple Blocks, Hi-hat, Iron And Wooden Sticks], Voice – Han Bennink Saxophone [Soprano, Alto, Tenor], Clarinet [Eb, Bass], Composed By – Willem Breuker Recorded on November 19 and December 10, 1967 at Felix Meritis, Amsterdam, The Netherlands. Recorded on B & O Beocord 2000 de Luxe, using two Sennheiser MD 421 microphones and BASF tape. Engineer – Gerard Van Beusekom Artwork By [Cover] – Han Bennink"
REM REPLAYGAIN_TRACK_GAIN 0.16 dB
REM REPLAYGAIN_TRACK_PEAK 0.647766
INDEX 01 00:00:00
FILE "03 - I.C.P. 1 for Maarten Derksen.flac" WAVE
TRACK 03 AUDIO
TITLE "I.C.P. 1 for Maarten Derksen"
PERFORMER "Han Bennink, Willem Breuker"
SONGWRITER "Han Bennink, Willem Breuker"
ISRC NLB151200436
REM COMMENT "Drums, Percussion [Bass Drum, Small & Large Tom Toms, Street Parade Drum, Snare Drum, Tabla, Banya, Vibrapan, Homemade Rattles, Cow & Temple Bells, Chinese 7inch Giant Cymbals, Scraper, Chinese Temple Blocks, Hi-hat, Iron And Wooden Sticks], Voice – Han Bennink Saxophone [Soprano, Alto, Tenor], Clarinet [Eb, Bass], Composed By – Willem Breuker Recorded on November 19 and December 10, 1967 at Felix Meritis, Amsterdam, The Netherlands. Recorded on B & O Beocord 2000 de Luxe, using two Sennheiser MD 421 microphones and BASF tape. Engineer – Gerard Van Beusekom Artwork By [Cover] – Han Bennink"
REM REPLAYGAIN_TRACK_GAIN -2.10 dB
REM REPLAYGAIN_TRACK_PEAK 0.626129
INDEX 01 00:00:00
FILE "04 - Singing the Impalpable Blues.flac" WAVE
TRACK 04 AUDIO
TITLE "Singing the Impalpable Blues"
PERFORMER "Han Bennink, Willem Breuker"
SONGWRITER "Han Bennink, Willem Breuker"
ISRC NLB151200437
REM COMMENT "Drums, Percussion [Bass Drum, Small & Large Tom Toms, Street Parade Drum, Snare Drum, Tabla, Banya, Vibrapan, Homemade Rattles, Cow & Temple Bells, Chinese 7inch Giant Cymbals, Scraper, Chinese Temple Blocks, Hi-hat, Iron And Wooden Sticks], Voice – Han Bennink Saxophone [Soprano, Alto, Tenor], Clarinet [Eb, Bass], Composed By – Willem Breuker Recorded on November 19 and December 10, 1967 at Felix Meritis, Amsterdam, The Netherlands. Recorded on B & O Beocord 2000 de Luxe, using two Sennheiser MD 421 microphones and BASF tape. Engineer – Gerard Van Beusekom Artwork By [Cover] – Han Bennink"
REM REPLAYGAIN_TRACK_GAIN -0.08 dB
REM REPLAYGAIN_TRACK_PEAK 0.688141
INDEX 01 00:00:00
FILE "05 - Mr. M. A. de R. in A..flac" WAVE
TRACK 05 AUDIO
TITLE "Mr. M. A. de R. in A."
PERFORMER "Han Bennink, Willem Breuker"
SONGWRITER "Han Bennink, Willem Breuker"
ISRC NLB151200438
REM COMMENT "Drums, Percussion [Bass Drum, Small & Large Tom Toms, Street Parade Drum, Snare Drum, Tabla, Banya, Vibrapan, Homemade Rattles, Cow & Temple Bells, Chinese 7inch Giant Cymbals, Scraper, Chinese Temple Blocks, Hi-hat, Iron And Wooden Sticks], Voice – Han Bennink Saxophone [Soprano, Alto, Tenor], Clarinet [Eb, Bass], Composed By – Willem Breuker Recorded on November 19 and December 10, 1967 at Felix Meritis, Amsterdam, The Netherlands. Recorded on B & O Beocord 2000 de Luxe, using two Sennheiser MD 421 microphones and BASF tape. Engineer – Gerard Van Beusekom Artwork By [Cover] – Han Bennink"
REM REPLAYGAIN_TRACK_GAIN 0.38 dB
REM REPLAYGAIN_TRACK_PEAK 0.582672
INDEX 01 00:00:00
FILE "06 - Gamut.flac" WAVE
TRACK 06 AUDIO
TITLE "Gamut"
PERFORMER "Han Bennink, Willem Breuker"
SONGWRITER "Han Bennink, Willem Breuker"
ISRC NLB151200439
REM COMMENT "Drums, Percussion [Bass Drum, Small & Large Tom Toms, Street Parade Drum, Snare Drum, Tabla, Banya, Vibrapan, Homemade Rattles, Cow & Temple Bells, Chinese 7inch Giant Cymbals, Scraper, Chinese Temple Blocks, Hi-hat, Iron And Wooden Sticks], Voice – Han Bennink Saxophone [Soprano, Alto, Tenor], Clarinet [Eb, Bass], Composed By – Willem Breuker Recorded on November 19 and December 10, 1967 at Felix Meritis, Amsterdam, The Netherlands. Recorded on B & O Beocord 2000 de Luxe, using two Sennheiser MD 421 microphones and BASF tape. Engineer – Gerard Van Beusekom Artwork By [Cover] – Han Bennink"
REM REPLAYGAIN_TRACK_GAIN -1.58 dB
REM REPLAYGAIN_TRACK_PEAK 0.803680
INDEX 01 00:00:00
 
002 - 1968 - Han Bennink, Misha Mengelberg, John Tchicai - Instant Composers Pool

1 Amagabowl Part 1 No A B C D E 10:20
2 Amagabowl Part 2 No F G H I J 13:07
3 Sweet Smells 10:39
4 Vietcong 14:32
 
.log
X Lossless Decoder version 20140504 (147.0)
XLD extraction logfile from 2014-10-12 22:56:32 +0400
Han Bennink, Misha Mengelberg, John Tchicai / Instant Composers Pool
Used drive : HL-DT-ST DVDRW GX30N (revision RP09)
Media type : Pressed CD
Ripper mode : XLD Secure Ripper
Disable audio cache : OK for the drive with a cache less than 1375KiB
Make use of C2 pointers : NO
Read offset correction : 6
Max retry count : 10000
Gap status : Analyzed, Appended (except HTOA)
TOC of the extracted CD
Track | Start | Length | Start sector | End sector
---------------------------------------------------------
1 | 00:00:00 | 10:20:58 | 0 | 46557
2 | 10:20:58 | 13:07:09 | 46558 | 105591
3 | 23:27:67 | 10:39:32 | 105592 | 153548
4 | 34:07:24 | 14:32:22 | 153549 | 218970
AccurateRip Summary (DiscID: 0008017e-00205520-290b6704)
Track 01 : OK (v1+v2, confidence 2/2)
Track 02 : OK (v1+v2, confidence 2/2)
Track 03 : OK (v1+v2, confidence 2/2)
Track 04 : OK (v1+v2, confidence 2/2)
->All tracks accurately ripped.
All Tracks
Album gain : 1.49 dB
Peak : 0.764130
Statistics
Read error : 0
Jitter error (maybe fixed) : 0
Retry sector count : 0
Damaged sector count : 0
Track 01
Filename : /Users/Shared/Grabbed/ICP Box/1968 - Han Bennink, Misha Mengelberg, John Tchicai - Instant Composers Pool/01 - Amagabowl part 1, no. A B C D E.flac
Pre-gap length : 00:02:00
Track gain : 1.37 dB
Peak : 0.675110
CRC32 hash (test run) : ADADB7A6
CRC32 hash : ADADB7A6
CRC32 hash (skip zero) : 07AF1396
AccurateRip v1 signature : 15E16D0B
AccurateRip v2 signature : 922186FD
->Accurately ripped (v1+v2, confidence 1+1/2)
Statistics
Read error : 0
Jitter error (maybe fixed) : 0
Retry sector count : 0
Damaged sector count : 0
Track 02
Filename : /Users/Shared/Grabbed/ICP Box/1968 - Han Bennink, Misha Mengelberg, John Tchicai - Instant Composers Pool/02 - Amagabowl part 2, no. F G H I J.flac
Track gain : 1.21 dB
Peak : 0.719147
CRC32 hash (test run) : DF07E31D
CRC32 hash : DF07E31D
CRC32 hash (skip zero) : 0C91A7D0
AccurateRip v1 signature : 26635117
AccurateRip v2 signature : 3607790D
->Accurately ripped (v1+v2, confidence 1+1/2)
Statistics
Read error : 0
Jitter error (maybe fixed) : 0
Retry sector count : 0
Damaged sector count : 0
Track 03
Filename : /Users/Shared/Grabbed/ICP Box/1968 - Han Bennink, Misha Mengelberg, John Tchicai - Instant Composers Pool/03 - Sweet Smells.flac
Track gain : 1.80 dB
Peak : 0.695221
CRC32 hash (test run) : 2CC87BCB
CRC32 hash : 2CC87BCB
CRC32 hash (skip zero) : 97E37397
AccurateRip v1 signature : 667286F5
AccurateRip v2 signature : 276A09D4
->Accurately ripped (v1+v2, confidence 1+1/2)
Statistics
Read error : 0
Jitter error (maybe fixed) : 0
Retry sector count : 0
Damaged sector count : 0
Track 04
Filename : /Users/Shared/Grabbed/ICP Box/1968 - Han Bennink, Misha Mengelberg, John Tchicai - Instant Composers Pool/04 - Vietcong.flac
Track gain : 1.61 dB
Peak : 0.764130
CRC32 hash (test run) : 82620B34
CRC32 hash : 82620B34
CRC32 hash (skip zero) : 6659917A
AccurateRip v1 signature : D60174A1
AccurateRip v2 signature : 3D465BD5
->Accurately ripped (v1+v2, confidence 1+1/2)
Statistics
Read error : 0
Jitter error (maybe fixed) : 0
Retry sector count : 0
Damaged sector count : 0
No errors occurred
End of status report
-----BEGIN XLD SIGNATURE-----
8LrlqSJ1QE.LbXLlwXDs44UABQk_agUsnWTBYRUwqx1m5Qz1iZH7Xgb3YcwOKpLZY6wURoNDoeYxMD897qUhPH8bHS31HAvL21JAArS
-----END XLD SIGNATURE-----
 
.cue
TITLE "Instant Composers Pool"
PERFORMER "Han Bennink, Misha Mengelberg, John Tchicai"
REM GENRE "Free Jazz"
REM DATE "1968"
REM DISCNUMBER 1
REM TOTALDISCS 1
REM DISCID 290B6704
REM REPLAYGAIN_ALBUM_GAIN 1.49 dB
REM REPLAYGAIN_ALBUM_PEAK 0.764130
FILE "01 - Amagabowl part 1, no. A B C D E.flac" WAVE
TRACK 01 AUDIO
TITLE "Amagabowl part 1, no. A B C D E"
PERFORMER "Han Bennink, Misha Mengelberg, John Tchicai"
SONGWRITER "Misha Mengelberg"
ISRC NLB151200440
REM REPLAYGAIN_TRACK_GAIN 1.37 dB
REM REPLAYGAIN_TRACK_PEAK 0.675110
INDEX 01 00:00:00
FILE "02 - Amagabowl part 2, no. F G H I J.flac" WAVE
TRACK 02 AUDIO
TITLE "Amagabowl part 2, no. F G H I J"
PERFORMER "Han Bennink, Misha Mengelberg, John Tchicai"
SONGWRITER "Misha Mengelberg"
ISRC NLB151200441
REM REPLAYGAIN_TRACK_GAIN 1.21 dB
REM REPLAYGAIN_TRACK_PEAK 0.719147
INDEX 01 00:00:00
FILE "03 - Sweet Smells.flac" WAVE
TRACK 03 AUDIO
TITLE "Sweet Smells"
PERFORMER "Han Bennink, Misha Mengelberg, John Tchicai"
SONGWRITER "John Tchicai"
ISRC NLB151200442
REM REPLAYGAIN_TRACK_GAIN 1.80 dB
REM REPLAYGAIN_TRACK_PEAK 0.695221
INDEX 01 00:00:00
FILE "04 - Vietcong.flac" WAVE
TRACK 04 AUDIO
TITLE "Vietcong"
PERFORMER "Han Bennink, Misha Mengelberg, John Tchicai"
SONGWRITER "Misha Mengelberg"
ISRC NLB151200443
REM REPLAYGAIN_TRACK_GAIN 1.61 dB
REM REPLAYGAIN_TRACK_PEAK 0.764130
INDEX 01 00:00:00
 
003 - 1969 - Willem Breuker - Lunchconcert for Three Barrelorgans

1 Intermezzo Between Nothing 1:10
2 Prelude I 0:50
3 Prelude II 2:30
4 Block Chorus 5:50
5 In Memory Of John Coltrane 5:08
6 Continuous C Sharp 6:57
7 Talking 4:50
8 Before Og 15 Kir II 3:20
9 Psalm 1964 2:58
10 Cross 0:17
11 Piece For Two Barrelorgans 1:27
12 Piece For Three Barrelorgans 3:10
13 Postlude For Three Barrelorgans 1:04
 
.log
X Lossless Decoder version 20140504 (147.0)
XLD extraction logfile from 2014-10-12 05:34:20 +0400
Willem Breuker / Lunchconcert for Three Barrelorgans
Used drive : HL-DT-ST DVDRW GX30N (revision RP09)
Media type : Pressed CD
Ripper mode : XLD Secure Ripper
Disable audio cache : OK for the drive with a cache less than 1375KiB
Make use of C2 pointers : NO
Read offset correction : 6
Max retry count : 10000
Gap status : Analyzed, Appended (except HTOA)
TOC of the extracted CD
Track | Start | Length | Start sector | End sector
---------------------------------------------------------
1 | 00:00:00 | 01:10:44 | 0 | 5293
2 | 01:10:44 | 00:46:47 | 5294 | 8790
3 | 01:57:16 | 02:36:08 | 8791 | 20498
4 | 04:33:24 | 05:42:53 | 20499 | 46201
5 | 10:16:02 | 04:45:42 | 46202 | 67618
6 | 15:01:44 | 06:34:21 | 67619 | 97189
7 | 21:35:65 | 05:00:63 | 97190 | 119752
8 | 26:36:53 | 03:27:68 | 119753 | 135345
9 | 30:04:46 | 03:02:09 | 135346 | 149004
10 | 33:06:55 | 00:37:51 | 149005 | 151830
11 | 33:44:31 | 00:57:37 | 151831 | 156142
12 | 34:41:68 | 03:04:21 | 156143 | 169963
13 | 37:46:14 | 00:37:18 | 169964 | 172756
AccurateRip Summary (DiscID: 0013d7aa-00ca8c4b-bb08ff0d)
Track 01 : OK (v1+v2, confidence 2/2)
Track 02 : OK (v1+v2, confidence 2/2)
Track 03 : OK (v1+v2, confidence 2/2)
Track 04 : OK (v1+v2, confidence 2/2)
Track 05 : OK (v1+v2, confidence 2/2)
Track 06 : OK (v1+v2, confidence 2/2)
Track 07 : OK (v1+v2, confidence 2/2)
Track 08 : OK (v1+v2, confidence 2/2)
Track 09 : OK (v1+v2, confidence 2/2)
Track 10 : OK (v1+v2, confidence 2/2)
Track 11 : OK (v1+v2, confidence 2/2)
Track 12 : OK (v1+v2, confidence 2/2)
Track 13 : OK (v1+v2, confidence 2/2)
->All tracks accurately ripped.
All Tracks
Album gain : 4.65 dB
Peak : 0.467316
Statistics
Read error : 0
Jitter error (maybe fixed) : 0
Retry sector count : 0
Damaged sector count : 0
Track 01
Filename : /Users/Shared/Grabbed/ICP Box/1969 - Willem Breuker - Lunchconcert for Three Barrelorgans/01 - Intermezzo between nothing.flac
Pre-gap length : 00:02:00
Track gain : 3.17 dB
Peak : 0.453369
CRC32 hash (test run) : B31600B3
CRC32 hash : B31600B3
CRC32 hash (skip zero) : 33492460
AccurateRip v1 signature : C841BD53
AccurateRip v2 signature : 03706B01
->Accurately ripped (v1+v2, confidence 1+1/2)
Statistics
Read error : 0
Jitter error (maybe fixed) : 0
Retry sector count : 0
Damaged sector count : 0
Track 02
Filename : /Users/Shared/Grabbed/ICP Box/1969 - Willem Breuker - Lunchconcert for Three Barrelorgans/02 - Prelude I.flac
Track gain : 3.12 dB
Peak : 0.424133
CRC32 hash (test run) : 1FAF4305
CRC32 hash : 1FAF4305
CRC32 hash (skip zero) : B516ADAE
AccurateRip v1 signature : 8A3B952B
AccurateRip v2 signature : 41197790
->Accurately ripped (v1+v2, confidence 1+1/2)
Statistics
Read error : 0
Jitter error (maybe fixed) : 0
Retry sector count : 0
Damaged sector count : 0
Track 03
Filename : /Users/Shared/Grabbed/ICP Box/1969 - Willem Breuker - Lunchconcert for Three Barrelorgans/03 - Prelude II.flac
Track gain : 5.10 dB
Peak : 0.394745
CRC32 hash (test run) : 7188AD23
CRC32 hash : 7188AD23
CRC32 hash (skip zero) : C022E95B
AccurateRip v1 signature : 3F056C92
AccurateRip v2 signature : A0997B7C
->Accurately ripped (v1+v2, confidence 1+1/2)
Statistics
Read error : 0
Jitter error (maybe fixed) : 0
Retry sector count : 0
Damaged sector count : 0
Track 04
Filename : /Users/Shared/Grabbed/ICP Box/1969 - Willem Breuker - Lunchconcert for Three Barrelorgans/04 - Block Chorus.flac
Track gain : 3.56 dB
Peak : 0.450287
CRC32 hash (test run) : 5A14D452
CRC32 hash : 5A14D452
CRC32 hash (skip zero) : F054E411
AccurateRip v1 signature : E396E7E9
AccurateRip v2 signature : 934F0473
->Accurately ripped (v1+v2, confidence 1+1/2)
Statistics
Read error : 0
Jitter error (maybe fixed) : 0
Retry sector count : 0
Damaged sector count : 0
Track 05
Filename : /Users/Shared/Grabbed/ICP Box/1969 - Willem Breuker - Lunchconcert for Three Barrelorgans/05 - In Memory of John Coltrane.flac
Track gain : 4.69 dB
Peak : 0.323395
CRC32 hash (test run) : 67E14975
CRC32 hash : 67E14975
CRC32 hash (skip zero) : 82BB9FF3
AccurateRip v1 signature : 2E7450B7
AccurateRip v2 signature : C617951C
->Accurately ripped (v1+v2, confidence 1+1/2)
Statistics
Read error : 0
Jitter error (maybe fixed) : 0
Retry sector count : 0
Damaged sector count : 0
Track 06
Filename : /Users/Shared/Grabbed/ICP Box/1969 - Willem Breuker - Lunchconcert for Three Barrelorgans/06 - Continuous C sharp.flac
Track gain : 5.76 dB
Peak : 0.461426
CRC32 hash (test run) : EA8D1E49
CRC32 hash : EA8D1E49
CRC32 hash (skip zero) : 4953D7D8
AccurateRip v1 signature : 5BBC3355
AccurateRip v2 signature : 538DCBDA
->Accurately ripped (v1+v2, confidence 1+1/2)
Statistics
Read error : 0
Jitter error (maybe fixed) : 0
Retry sector count : 0
Damaged sector count : 0
Track 07
Filename : /Users/Shared/Grabbed/ICP Box/1969 - Willem Breuker - Lunchconcert for Three Barrelorgans/07 - Talking.flac
Track gain : 4.25 dB
Peak : 0.368561
CRC32 hash (test run) : 04262C2C
CRC32 hash : 04262C2C
CRC32 hash (skip zero) : 4D25B9E0
AccurateRip v1 signature : ECD7834F
AccurateRip v2 signature : 9E281ED2
->Accurately ripped (v1+v2, confidence 1+1/2)
Statistics
Read error : 0
Jitter error (maybe fixed) : 0
Retry sector count : 0
Damaged sector count : 0
Track 08
Filename : /Users/Shared/Grabbed/ICP Box/1969 - Willem Breuker - Lunchconcert for Three Barrelorgans/08 - Before Og 15 Kir II.flac
Track gain : 4.96 dB
Peak : 0.467316
CRC32 hash (test run) : 8C5F6076
CRC32 hash : 8C5F6076
CRC32 hash (skip zero) : 6DF97BC9
AccurateRip v1 signature : C83AEE59
AccurateRip v2 signature : 366E1AF4
->Accurately ripped (v1+v2, confidence 1+1/2)
Statistics
Read error : 0
Jitter error (maybe fixed) : 0
Retry sector count : 0
Damaged sector count : 0
Track 09
Filename : /Users/Shared/Grabbed/ICP Box/1969 - Willem Breuker - Lunchconcert for Three Barrelorgans/09 - Psalm 1964.flac
Track gain : 5.10 dB
Peak : 0.339691
CRC32 hash (test run) : 1E3CE91F
CRC32 hash : 1E3CE91F
CRC32 hash (skip zero) : 908BC97E
AccurateRip v1 signature : EE9BD3C7
AccurateRip v2 signature : 2EC162B7
->Accurately ripped (v1+v2, confidence 1+1/2)
Statistics
Read error : 0
Jitter error (maybe fixed) : 0
Retry sector count : 0
Damaged sector count : 0
Track 10
Filename : /Users/Shared/Grabbed/ICP Box/1969 - Willem Breuker - Lunchconcert for Three Barrelorgans/10 - Cross.flac
Track gain : 5.75 dB
Peak : 0.322174
CRC32 hash (test run) : 2B4963F6
CRC32 hash : 2B4963F6
CRC32 hash (skip zero) : 229A3F0C
AccurateRip v1 signature : 7FAC2752
AccurateRip v2 signature : 4B760F68
->Accurately ripped (v1+v2, confidence 1+1/2)
Statistics
Read error : 0
Jitter error (maybe fixed) : 0
Retry sector count : 0
Damaged sector count : 0
Track 11
Filename : /Users/Shared/Grabbed/ICP Box/1969 - Willem Breuker - Lunchconcert for Three Barrelorgans/11 - Piece for two barrelorgans.flac
Track gain : 4.22 dB
Peak : 0.344177
CRC32 hash (test run) : 79132CE2
CRC32 hash : 79132CE2
CRC32 hash (skip zero) : 8C4F7B5B
AccurateRip v1 signature : 11CE1AF7
AccurateRip v2 signature : F50C7A7B
->Accurately ripped (v1+v2, confidence 1+1/2)
Statistics
Read error : 0
Jitter error (maybe fixed) : 0
Retry sector count : 0
Damaged sector count : 0
Track 12
Filename : /Users/Shared/Grabbed/ICP Box/1969 - Willem Breuker - Lunchconcert for Three Barrelorgans/12 - Piece for three barrelorgans.flac
Track gain : 5.41 dB
Peak : 0.359955
CRC32 hash (test run) : 0960C917
CRC32 hash : 0960C917
CRC32 hash (skip zero) : 250D8709
AccurateRip v1 signature : B8C9BE63
AccurateRip v2 signature : B979BCFB
->Accurately ripped (v1+v2, confidence 1+1/2)
Statistics
Read error : 0
Jitter error (maybe fixed) : 0
Retry sector count : 0
Damaged sector count : 0
Track 13
Filename : /Users/Shared/Grabbed/ICP Box/1969 - Willem Breuker - Lunchconcert for Three Barrelorgans/13 - Postlude for three barrelorgans.flac
Track gain : 5.84 dB
Peak : 0.328430
CRC32 hash (test run) : C54F5039
CRC32 hash : C54F5039
CRC32 hash (skip zero) : 38AD17B2
AccurateRip v1 signature : C9CF619D
AccurateRip v2 signature : 4C011F7A
->Accurately ripped (v1+v2, confidence 1+1/2)
Statistics
Read error : 0
Jitter error (maybe fixed) : 0
Retry sector count : 0
Damaged sector count : 0
No errors occurred
End of status report
-----BEGIN XLD SIGNATURE-----
RvHhmrQGkiOVT4f.HywKY6d10ERxLZQo9ja41ajoB7WH4vDCW.Z8owaLpCGRMP9dSKi9jLSFJBNT6oGdgUY6P8ym09eoVLf88w1f9lC
-----END XLD SIGNATURE-----
 
.cue
TITLE "Lunchconcert for Three Barrelorgans"
PERFORMER "Willem Breuker"
REM GENRE "Free Jazz"
REM DATE "1969"
REM DISCNUMBER 1
REM TOTALDISCS 1
REM DISCID BB08FF0D
REM REPLAYGAIN_ALBUM_GAIN 4.65 dB
REM REPLAYGAIN_ALBUM_PEAK 0.467316
FILE "01 - Intermezzo between nothing.flac" WAVE
TRACK 01 AUDIO
TITLE "Intermezzo between nothing"
PERFORMER "Willem Breuker"
SONGWRITER "Willem Breuker"
ISRC NLB151200444
REM COMMENT "Composed By – Willem Breuker Photography By Bob van Grevenbroek, Pieter Boersma Recorded live at Dam Square, March 26, 1969 (lunchtime) by Alwin Mulder. The three barrelorgans Pipo, Puntkapje and Snotneus from Mr. Gijs Perlee, Amsterdam. "
REM REPLAYGAIN_TRACK_GAIN 3.17 dB
REM REPLAYGAIN_TRACK_PEAK 0.453369
INDEX 01 00:00:00
FILE "02 - Prelude I.flac" WAVE
TRACK 02 AUDIO
TITLE "Prelude I"
PERFORMER "Willem Breuker"
SONGWRITER "Willem Breuker"
ISRC NLB151200445
REM COMMENT "Composed By – Willem Breuker Photography By Bob van Grevenbroek, Pieter Boersma Recorded live at Dam Square, March 26, 1969 (lunchtime) by Alwin Mulder. The three barrelorgans Pipo, Puntkapje and Snotneus from Mr. Gijs Perlee, Amsterdam. "
REM REPLAYGAIN_TRACK_GAIN 3.12 dB
REM REPLAYGAIN_TRACK_PEAK 0.424133
INDEX 01 00:00:00
FILE "03 - Prelude II.flac" WAVE
TRACK 03 AUDIO
TITLE "Prelude II"
PERFORMER "Willem Breuker"
SONGWRITER "Willem Breuker"
ISRC NLB151200446
REM COMMENT "Composed By – Willem Breuker Photography By Bob van Grevenbroek, Pieter Boersma Recorded live at Dam Square, March 26, 1969 (lunchtime) by Alwin Mulder. The three barrelorgans Pipo, Puntkapje and Snotneus from Mr. Gijs Perlee, Amsterdam. "
REM REPLAYGAIN_TRACK_GAIN 5.10 dB
REM REPLAYGAIN_TRACK_PEAK 0.394745
INDEX 01 00:00:00
FILE "04 - Block Chorus.flac" WAVE
TRACK 04 AUDIO
TITLE "Block Chorus"
PERFORMER "Willem Breuker"
SONGWRITER "Willem Breuker"
ISRC NLB151200447
REM COMMENT "Composed By – Willem Breuker Photography By Bob van Grevenbroek, Pieter Boersma Recorded live at Dam Square, March 26, 1969 (lunchtime) by Alwin Mulder. The three barrelorgans Pipo, Puntkapje and Snotneus from Mr. Gijs Perlee, Amsterdam. "
REM REPLAYGAIN_TRACK_GAIN 3.56 dB
REM REPLAYGAIN_TRACK_PEAK 0.450287
INDEX 01 00:00:00
FILE "05 - In Memory of John Coltrane.flac" WAVE
TRACK 05 AUDIO
TITLE "In Memory of John Coltrane"
PERFORMER "Willem Breuker"
SONGWRITER "Willem Breuker"
ISRC NLB151200448
REM COMMENT "Composed By – Willem Breuker Photography By Bob van Grevenbroek, Pieter Boersma Recorded live at Dam Square, March 26, 1969 (lunchtime) by Alwin Mulder. The three barrelorgans Pipo, Puntkapje and Snotneus from Mr. Gijs Perlee, Amsterdam. "
REM REPLAYGAIN_TRACK_GAIN 4.69 dB
REM REPLAYGAIN_TRACK_PEAK 0.323395
INDEX 01 00:00:00
FILE "06 - Continuous C sharp.flac" WAVE
TRACK 06 AUDIO
TITLE "Continuous C sharp"
PERFORMER "Willem Breuker"
SONGWRITER "Willem Breuker"
ISRC NLB151200449
REM COMMENT "Composed By – Willem Breuker Photography By Bob van Grevenbroek, Pieter Boersma Recorded live at Dam Square, March 26, 1969 (lunchtime) by Alwin Mulder. The three barrelorgans Pipo, Puntkapje and Snotneus from Mr. Gijs Perlee, Amsterdam. "
REM REPLAYGAIN_TRACK_GAIN 5.76 dB
REM REPLAYGAIN_TRACK_PEAK 0.461426
INDEX 01 00:00:00
FILE "07 - Talking.flac" WAVE
TRACK 07 AUDIO
TITLE "Talking"
PERFORMER "Willem Breuker"
SONGWRITER "Willem Breuker"
ISRC NLB151200450
REM COMMENT "Composed By – Willem Breuker Photography By Bob van Grevenbroek, Pieter Boersma Recorded live at Dam Square, March 26, 1969 (lunchtime) by Alwin Mulder. The three barrelorgans Pipo, Puntkapje and Snotneus from Mr. Gijs Perlee, Amsterdam. "
REM REPLAYGAIN_TRACK_GAIN 4.25 dB
REM REPLAYGAIN_TRACK_PEAK 0.368561
INDEX 01 00:00:00
FILE "08 - Before Og 15 Kir II.flac" WAVE
TRACK 08 AUDIO
TITLE "Before Og 15 Kir II"
PERFORMER "Willem Breuker"
SONGWRITER "Willem Breuker"
ISRC NLB151200451
REM COMMENT "Composed By – Willem Breuker Photography By Bob van Grevenbroek, Pieter Boersma Recorded live at Dam Square, March 26, 1969 (lunchtime) by Alwin Mulder. The three barrelorgans Pipo, Puntkapje and Snotneus from Mr. Gijs Perlee, Amsterdam. "
REM REPLAYGAIN_TRACK_GAIN 4.96 dB
REM REPLAYGAIN_TRACK_PEAK 0.467316
INDEX 01 00:00:00
FILE "09 - Psalm 1964.flac" WAVE
TRACK 09 AUDIO
TITLE "Psalm 1964"
PERFORMER "Willem Breuker"
SONGWRITER "Willem Breuker"
ISRC NLB151200452
REM COMMENT "Composed By – Willem Breuker Photography By Bob van Grevenbroek, Pieter Boersma Recorded live at Dam Square, March 26, 1969 (lunchtime) by Alwin Mulder. The three barrelorgans Pipo, Puntkapje and Snotneus from Mr. Gijs Perlee, Amsterdam. "
REM REPLAYGAIN_TRACK_GAIN 5.10 dB
REM REPLAYGAIN_TRACK_PEAK 0.339691
INDEX 01 00:00:00
FILE "10 - Cross.flac" WAVE
TRACK 10 AUDIO
TITLE "Cross"
PERFORMER "Willem Breuker"
SONGWRITER "Willem Breuker"
ISRC NLB151200453
REM COMMENT "Composed By – Willem Breuker Photography By Bob van Grevenbroek, Pieter Boersma Recorded live at Dam Square, March 26, 1969 (lunchtime) by Alwin Mulder. The three barrelorgans Pipo, Puntkapje and Snotneus from Mr. Gijs Perlee, Amsterdam. "
REM REPLAYGAIN_TRACK_GAIN 5.75 dB
REM REPLAYGAIN_TRACK_PEAK 0.322174
INDEX 01 00:00:00
FILE "11 - Piece for two barrelorgans.flac" WAVE
TRACK 11 AUDIO
TITLE "Piece for two barrelorgans"
PERFORMER "Willem Breuker"
SONGWRITER "Willem Breuker"
ISRC NLB151200454
REM COMMENT "Composed By – Willem Breuker Photography By Bob van Grevenbroek, Pieter Boersma Recorded live at Dam Square, March 26, 1969 (lunchtime) by Alwin Mulder. The three barrelorgans Pipo, Puntkapje and Snotneus from Mr. Gijs Perlee, Amsterdam. "
REM REPLAYGAIN_TRACK_GAIN 4.22 dB
REM REPLAYGAIN_TRACK_PEAK 0.344177
INDEX 01 00:00:00
FILE "12 - Piece for three barrelorgans.flac" WAVE
TRACK 12 AUDIO
TITLE "Piece for three barrelorgans"
PERFORMER "Willem Breuker"
SONGWRITER "Willem Breuker"
ISRC NLB151200455
REM COMMENT "Composed By – Willem Breuker Photography By Bob van Grevenbroek, Pieter Boersma Recorded live at Dam Square, March 26, 1969 (lunchtime) by Alwin Mulder. The three barrelorgans Pipo, Puntkapje and Snotneus from Mr. Gijs Perlee, Amsterdam. "
REM REPLAYGAIN_TRACK_GAIN 5.41 dB
REM REPLAYGAIN_TRACK_PEAK 0.359955
INDEX 01 00:00:00
FILE "13 - Postlude for three barrelorgans.flac" WAVE
TRACK 13 AUDIO
TITLE "Postlude for three barrelorgans"
PERFORMER "Willem Breuker"
SONGWRITER "Willem Breuker"
ISRC NLB151200456
REM COMMENT "Composed By – Willem Breuker Photography By Bob van Grevenbroek, Pieter Boersma Recorded live at Dam Square, March 26, 1969 (lunchtime) by Alwin Mulder. The three barrelorgans Pipo, Puntkapje and Snotneus from Mr. Gijs Perlee, Amsterdam. "
REM REPLAYGAIN_TRACK_GAIN 5.84 dB
REM REPLAYGAIN_TRACK_PEAK 0.328430
INDEX 01 00:00:00
 
004 - 1969 - Derek Bailey, Han Bennink

1 An Old Woman Is Shelling Beans Inside Her Privy Parts. It Sounds "Like The Deep Croaking Of A Frog" 14:40
2 Suki 2:35
3 Gachi = Long Tin African Trumpet 1:35
4 Kst, Kst 1:30
5 Good Morning, Derek I 10:45
6 Chonkichonki 5:20
7 Tsk, Tsk 2:30
 
.log
X Lossless Decoder version 20140504 (147.0)
XLD extraction logfile from 2014-10-15 00:32:21 +0400
Derek Bailey, Han Bennink / Derek Bailey, Han Bennink
Used drive : HL-DT-ST DVDRW GX30N (revision RP09)
Media type : Pressed CD
Ripper mode : XLD Secure Ripper
Disable audio cache : OK for the drive with a cache less than 1375KiB
Make use of C2 pointers : NO
Read offset correction : 6
Max retry count : 10000
Gap status : Analyzed, Appended (except HTOA)
TOC of the extracted CD
Track | Start | Length | Start sector | End sector
---------------------------------------------------------
1 | 00:00:00 | 14:45:46 | 0 | 66420
2 | 14:45:46 | 02:42:54 | 66421 | 78624
3 | 17:28:25 | 01:41:74 | 78625 | 86273
4 | 19:10:24 | 01:38:45 | 86274 | 93668
5 | 20:48:69 | 10:52:15 | 93669 | 142583
6 | 31:41:09 | 05:14:11 | 142584 | 166144
7 | 36:55:20 | 02:31:63 | 166145 | 177532
AccurateRip Summary (DiscID: 000c60f3-0046828e-49093f07)
Track 01 : OK (v2, confidence 2/2)
Track 02 : OK (v2, confidence 2/2)
Track 03 : OK (v2, confidence 2/2)
Track 04 : OK (v2, confidence 2/2)
Track 05 : OK (v2, confidence 2/2)
Track 06 : OK (v2, confidence 2/2)
Track 07 : OK (v2, confidence 2/2)
->All tracks accurately ripped.
All Tracks
Album gain : 1.37 dB
Peak : 0.789948
Statistics
Read error : 0
Jitter error (maybe fixed) : 0
Retry sector count : 0
Damaged sector count : 0
Track 01
Filename : /Users/Shared/Grabbed/ICP Box/1969 - Derek Bailey, Han Bennink - Derek Bailey, Han Bennink/01 - An old woman is shelling beans inside her privy parts. It sounds 'Like the deep croaking of a frog'.flac
Pre-gap length : 00:02:00
Track gain : 1.46 dB
Peak : 0.704376
CRC32 hash (test run) : DCAC48E7
CRC32 hash : DCAC48E7
CRC32 hash (skip zero) : AE5B597D
AccurateRip v1 signature : 42AF4B44
AccurateRip v2 signature : A4BBE262
->Accurately ripped (v2, confidence 2/2)
Statistics
Read error : 0
Jitter error (maybe fixed) : 0
Retry sector count : 0
Damaged sector count : 0
Track 02
Filename : /Users/Shared/Grabbed/ICP Box/1969 - Derek Bailey, Han Bennink - Derek Bailey, Han Bennink/02 - Suki.flac
Track gain : 1.21 dB
Peak : 0.606964
CRC32 hash (test run) : 8E17B296
CRC32 hash : 8E17B296
CRC32 hash (skip zero) : 8A9CAEFC
AccurateRip v1 signature : CC01A6FB
AccurateRip v2 signature : 6E1903A5
->Accurately ripped (v2, confidence 2/2)
Statistics
Read error : 0
Jitter error (maybe fixed) : 0
Retry sector count : 0
Damaged sector count : 0
Track 03
Filename : /Users/Shared/Grabbed/ICP Box/1969 - Derek Bailey, Han Bennink - Derek Bailey, Han Bennink/03 - Gachi - long tin african trumpet.flac
Track gain : 1.17 dB
Peak : 0.422607
CRC32 hash (test run) : EC7FCD07
CRC32 hash : EC7FCD07
CRC32 hash (skip zero) : 07D7B70C
AccurateRip v1 signature : C68448D3
AccurateRip v2 signature : B96E46E0
->Accurately ripped (v2, confidence 2/2)
Statistics
Read error : 0
Jitter error (maybe fixed) : 0
Retry sector count : 0
Damaged sector count : 0
Track 04
Filename : /Users/Shared/Grabbed/ICP Box/1969 - Derek Bailey, Han Bennink - Derek Bailey, Han Bennink/04 - Kst Kst.flac
Track gain : 1.48 dB
Peak : 0.768219
CRC32 hash (test run) : FA6B7130
CRC32 hash : FA6B7130
CRC32 hash (skip zero) : DFC172D0
AccurateRip v1 signature : 48971CED
AccurateRip v2 signature : 128FAC0E
->Accurately ripped (v2, confidence 2/2)
Statistics
Read error : 0
Jitter error (maybe fixed) : 0
Retry sector count : 0
Damaged sector count : 0
Track 05
Filename : /Users/Shared/Grabbed/ICP Box/1969 - Derek Bailey, Han Bennink - Derek Bailey, Han Bennink/05 - Good Morning, Derek.flac
Track gain : 0.92 dB
Peak : 0.693329
CRC32 hash (test run) : 920F71BA
CRC32 hash : 920F71BA
CRC32 hash (skip zero) : 01444F8B
AccurateRip v1 signature : 0A4CD721
AccurateRip v2 signature : F1BEC75D
->Accurately ripped (v2, confidence 2/2)
Statistics
Read error : 0
Jitter error (maybe fixed) : 0
Retry sector count : 0
Damaged sector count : 0
Track 06
Filename : /Users/Shared/Grabbed/ICP Box/1969 - Derek Bailey, Han Bennink - Derek Bailey, Han Bennink/06 - Chonkichonki.flac
Track gain : 2.64 dB
Peak : 0.757233
CRC32 hash (test run) : 77506B86
CRC32 hash : 77506B86
CRC32 hash (skip zero) : EE722AE8
AccurateRip v1 signature : 86791EF8
AccurateRip v2 signature : 6525BE31
->Accurately ripped (v2, confidence 2/2)
Statistics
Read error : 0
Jitter error (maybe fixed) : 0
Retry sector count : 0
Damaged sector count : 0
Track 07
Filename : /Users/Shared/Grabbed/ICP Box/1969 - Derek Bailey, Han Bennink - Derek Bailey, Han Bennink/07 - Tsk Tsk.flac
Track gain : 2.66 dB
Peak : 0.789948
CRC32 hash (test run) : 69907609
CRC32 hash : 69907609
CRC32 hash (skip zero) : 56998A9E
AccurateRip v1 signature : E7D34F8B
AccurateRip v2 signature : 4D209C2F
->Accurately ripped (v2, confidence 2/2)
Statistics
Read error : 0
Jitter error (maybe fixed) : 0
Retry sector count : 0
Damaged sector count : 0
No errors occurred
End of status report
-----BEGIN XLD SIGNATURE-----
PI0ZQSV7AtXKeLxV8j8vld_0DYYIO6k4o40hocItcQFadFxnXc.nQi2RJ44AAuhNW7HhWwyJ4N52LeXvyNQfaSVVuLjJPsJx8vZbjUe
-----END XLD SIGNATURE-----
 
.cue
TITLE "Derek Bailey, Han Bennink"
PERFORMER "Derek Bailey, Han Bennink"
REM GENRE "Free Jazz"
REM DATE "1969"
REM DISCNUMBER 1
REM TOTALDISCS 1
REM DISCID 49093F07
REM REPLAYGAIN_ALBUM_GAIN 1.37 dB
REM REPLAYGAIN_ALBUM_PEAK 0.789948
FILE "01 - An old woman is shelling beans.flac" WAVE
TRACK 01 AUDIO
TITLE "An old woman is shelling beans inside her privy parts. It sounds "Like the deep croaking of a frog""
PERFORMER "Derek Bailey, Han Bennink"
SONGWRITER "Derek Bailey, Han Bennink"
ISRC NLB151200457
REM COMMENT "Drums, Oboe, Gachi, Conch Trumpet - Han Bennink Guitar – Derek Bailey Photography By – Pieter Boersma Engineer – André v.d. Water Artwork – Han Bennink Front cover drawing of the first edition is brown on white. Labels are pinkish red on white. The sleeves of a small part of the first edition have been handmade by Han Bennink, with a spiral or some letters drawn with glue onto the front. A later edition has black on white labels and a different back cover. Recorded on July 30, 1969 at Studio Andre van de Water, Nederhorst den Berg (The Netherlands)."
REM REPLAYGAIN_TRACK_GAIN 1.46 dB
REM REPLAYGAIN_TRACK_PEAK 0.704376
INDEX 01 00:00:00
FILE "02 - Suki.flac" WAVE
TRACK 02 AUDIO
TITLE "Suki"
PERFORMER "Derek Bailey, Han Bennink"
SONGWRITER "Derek Bailey, Han Bennink"
ISRC NLB151200458
REM COMMENT "Drums, Oboe, Gachi, Conch Trumpet - Han Bennink Guitar – Derek Bailey Photography By – Pieter Boersma Engineer – André v.d. Water Artwork – Han Bennink Front cover drawing of the first edition is brown on white. Labels are pinkish red on white. The sleeves of a small part of the first edition have been handmade by Han Bennink, with a spiral or some letters drawn with glue onto the front. A later edition has black on white labels and a different back cover. Recorded on July 30, 1969 at Studio Andre van de Water, Nederhorst den Berg (The Netherlands)."
REM REPLAYGAIN_TRACK_GAIN 1.21 dB
REM REPLAYGAIN_TRACK_PEAK 0.606964
INDEX 01 00:00:00
FILE "03 - Gachi - long tin african trumpet.flac" WAVE
TRACK 03 AUDIO
TITLE "Gachi = long tin african trumpet"
PERFORMER "Derek Bailey, Han Bennink"
SONGWRITER "Derek Bailey, Han Bennink"
ISRC NLB151200459
REM COMMENT "Drums, Oboe, Gachi, Conch Trumpet - Han Bennink Guitar – Derek Bailey Photography By – Pieter Boersma Engineer – André v.d. Water Artwork – Han Bennink Front cover drawing of the first edition is brown on white. Labels are pinkish red on white. The sleeves of a small part of the first edition have been handmade by Han Bennink, with a spiral or some letters drawn with glue onto the front. A later edition has black on white labels and a different back cover. Recorded on July 30, 1969 at Studio Andre van de Water, Nederhorst den Berg (The Netherlands)."
REM REPLAYGAIN_TRACK_GAIN 1.17 dB
REM REPLAYGAIN_TRACK_PEAK 0.422607
INDEX 01 00:00:00
FILE "04 - Kst Kst.flac" WAVE
TRACK 04 AUDIO
TITLE "Kst Kst"
PERFORMER "Derek Bailey, Han Bennink"
SONGWRITER "Derek Bailey, Han Bennink"
ISRC NLB151200460
REM COMMENT "Drums, Oboe, Gachi, Conch Trumpet - Han Bennink Guitar – Derek Bailey Photography By – Pieter Boersma Engineer – André v.d. Water Artwork – Han Bennink Front cover drawing of the first edition is brown on white. Labels are pinkish red on white. The sleeves of a small part of the first edition have been handmade by Han Bennink, with a spiral or some letters drawn with glue onto the front. A later edition has black on white labels and a different back cover. Recorded on July 30, 1969 at Studio Andre van de Water, Nederhorst den Berg (The Netherlands)."
REM REPLAYGAIN_TRACK_GAIN 1.48 dB
REM REPLAYGAIN_TRACK_PEAK 0.768219
INDEX 01 00:00:00
FILE "05 - Good Morning, Derek.flac" WAVE
TRACK 05 AUDIO
TITLE "Good Morning, Derek"
PERFORMER "Derek Bailey, Han Bennink"
SONGWRITER "Derek Bailey, Han Bennink"
ISRC NLB151200461
REM COMMENT "Drums, Oboe, Gachi, Conch Trumpet - Han Bennink Guitar – Derek Bailey Photography By – Pieter Boersma Engineer – André v.d. Water Artwork – Han Bennink Front cover drawing of the first edition is brown on white. Labels are pinkish red on
По всем вопросам пишите личное сообщение пользователю M0p94ok.
05:28
169
Нет комментариев. Ваш будет первым!