Поиск

(Avant-Garde Jazz / Free Improvisation) [CD] Joe McPhee (Otis Greene, Tyrone Crabb, Dave Jones, Mike Kull, Herbie Lehman, Bruce Thompson, Ernest Bostic) - Nation Time: The Complete Recordings [4CD] - 2013, FLAC (tracks+.cue), lossless

(Avant-Garde Jazz / Free Improvisation) [CD] Joe McPhee (Otis Greene, Tyrone Crabb, Dave Jones, Mike Kull, Herbie Lehman, Bruce Thompson, Ernest Bostic) - Nation Time: The Complete Recordings [4CD] - 2013, FLAC (tracks+.cue), lossless
Треклист:
Joe McPhee - Nation Time: The Complete Recordings
Жанр: Avant-Garde Jazz / Free Improvisation
Носитель: CD
Страна-производитель диска (релиза): USA
Год издания: 2013
Годы записи: 1969, 1970
Издатель (лейбл): Corbett vs. Dempsey
Номер по каталогу: CvsD CD 011
Аудиокодек: FLAC (*.flac)
Тип рипа: tracks+.cue
Битрейт аудио: lossless
Продолжительность: CD 1 - 00:41:00 / CD 2 - 01:04:14 / CD 3 - 00:57:11 / CD 4 - 01:18:08
Источник (релизер): what.cd / спасибо 6060842
Наличие сканов в содержимом раздачи: нет (front only)
Треклист:
CD 1 : Nation Time
1. Nation Time (18:36)
2. Shakey Jake (13:39)
3. Scorpio's Dance (08:44)
CD 2 : Black Magic Man
1. Black Magic Man (21:36)
2. Song For Lauren (09:44)
3. Hymn Of The Dragon Kings (23:45)
4. Song For Lauren (Alternate 1) (04:55)
5. Song For Lauren (Alternate 2) (04:11)
CD 3 : Nation Time Preview, 1969
1. Nation Time (07:03)
2. Untitled (09:21)
3. Milestones (12:19)
4. My Funny Valentine (10:11)
5. Bag's Groove (15:41)
6. Breakaway Theme (02:33)
CD 4 : The Vassar Sessions, 1970
1. Cold Sweat (11:20)
2. Contemplation (11:10)
3. Spring Street (08:28)
4. Hymn Of The Dragon Kings (17:31)
5. Sunshower (22:52)
6. Untitled (06:43)
Доп. информация:
Musicians:
Joe McPhee - tenor saxophone, soprano saxophone, trumpet
Otis Greene - alto saxophone
Tyrone Crabb - double bass, bass, electric bass, trumpet
Dave Jones - electric guitar
Mike Kull - piano, electric piano
Herbie Lehman - organ
Bruce Thompson, Ernest Bostic - percussion
CD 1 recorded live on december 12 and 13 1970 at chicago hall and vassar college urban center for black studies
Previously released on the cj record productions (cjr 2)
CD 2 recorded on december 12 1970 at vassar college
Previously released on the hat-hut label (hat-hut a)
CD 3 recorded live at the paddock poughkeepsie new york 1969, previously unreleased
CD 4 recoded live at chicago hall vassar college urban center for black studies december 1970 previously unreleased
Joe McPhee's Nation Time box set corbettvsdempsey.com
Joe McPhee Official Site
Joe McPhee from Wikipedia, the free encyclopedia
 
... cover's ...



 
... album info ...
Joe McPhee's Nation Time box set
October 19, 2013
CHICAGO - On sale November 1st, Corbett vs. Dempsey presents a 4-disc, box set edition of Joe McPhee's Nation Time. A seminal spiritual-free-funk record, complete with all the recordings made during the 2-day 1970 session and two concerts from 1969. The 60-page book features period photos and definitive new interview with McPhee.
In 1970, multi-instrumentalist Joe McPhee waxed one of the landmark free-funk records: Nation Time. Recorded in concert at Vassar College and originally released on McPhee's own CjR label, Nation Time culled elements of post-Coltrane spiritual jazz, greasy organ funk, and expressive r&b into a previously unknown brand of Poughkeepsie stew. When the LP was finally reissued on CD a dozen years ago, it became an instant hit, drawing fans from the British soul scene and denizens of free jazz alike, introducing a new generation to Mr. McPhee’s powerful statement, still brimming with sweat and humanity thirty years after its birth.
After working on it for five years, Corbett vs. Dempsey is proud to release Nation Time: The Complete Recordings, a deluxe 4-disc box set featuring all the music leading up to and around the seminal LP. With 17 tracks previously unreleased on CD, most of which have never been issued at all, the set provides an expansive picture of the vibrant up-state NY free jazz/new thing scene, centered as it was on Joe McPhee. Lavishly packaged, with a booklet containing an extensive conversation between John Corbett and Joe McPhee and many previously unpublished photographs, Nation Time: The Complete Recordings also helps contextualize the original LP, exploring the special milieu in which tracks like “Shaky Jake” and “Scorpio’s Dance” took shape.
Along with the LP, complete and remastered, Nation Time: The Complete Recordingspresents additional tracks recorded during the original 2-day performances in December, 1970, including a version of James Brown's “Cold Sweat,” as well as the full LP Black Magic Man, which was released on vinyl as the very first issue of the fledgeling Hat Hut record label in 1975, but has never been reissued on CD. Two fascinating concert recordings from 1969 are released here for the first time, one featuring McPhee on trumpet playing jazz standards including “My Funny Valentine,” “Milestones,” and “Bag's Groove,” and the other, recorded at a local bar called the Paddock, including the first incarnation of what would become the track “Nation Time.”
This box set cuts direct to the heart of 1970s jazz-funk expression, with all the passion, intrigue, and tenderness the world has come to expect from Joe McPhee. Here it is in all its germinal, previously unheard glory. What time is it? You know what time it is. Once again, it’s Nation Time!
Each box contains:
* Nation Time, the original LP, complete as issued and remastered
* Black Magic Man, the original LP, complete with two alternate takes of “Song for Lauren”
* The Vassar Sessions, 1970, six unreleased tracks from the Nation Time recording sessions
* Nation Time Preview, 1969, two concert recordings in the run-up to Nation Time
~ corbettvsdempsey.com
 
Лог создания рипа
 
CD 1 : Nation Time
X Lossless Decoder version 20141129 (148.1)
XLD extraction logfile from 2015-03-16 02:21:09 +0300
Joe McPhee / Nation Time
Used drive : HL-DT-ST DVDRW GX30N (revision RP09)
Media type : Pressed CD
Ripper mode : XLD Secure Ripper
Disable audio cache : OK for the drive with a cache less than 1375KiB
Make use of C2 pointers : NO
Read offset correction : 6
Max retry count : 10000
Gap status : Analyzed, Appended (except HTOA)
TOC of the extracted CD
Track | Start | Length | Start sector | End sector
---------------------------------------------------------
1 | 00:00:00 | 18:36:34 | 0 | 83733
2 | 18:36:34 | 13:39:39 | 83734 | 145197
3 | 32:15:73 | 08:44:40 | 145198 | 184537
AccurateRip Summary
Disc not found in AccurateRip DB.
All Tracks
Album gain : -4.52 dB
Peak : 0.912018
Statistics
Read error : 0
Jitter error (maybe fixed) : 0
Retry sector count : 0
Damaged sector count : 0
Track 01
Filename : /Users/Shared/Grabbed/Joe McPhee/F 1971 - Nation Time/01 - Nation Time.flac
Pre-gap length : 00:02:00
Track gain : -4.98 dB
Peak : 0.912018
CRC32 hash (test run) : 935A5595
CRC32 hash : 935A5595
CRC32 hash (skip zero) : 3AED40CA
AccurateRip v1 signature : E207540F
AccurateRip v2 signature : 50A4A993
->Track not present in AccurateRip database.
Statistics
Read error : 0
Jitter error (maybe fixed) : 0
Retry sector count : 0
Damaged sector count : 0
Track 02
Filename : /Users/Shared/Grabbed/Joe McPhee/F 1971 - Nation Time/02 - Shakey Jake.flac
Track gain : -2.96 dB
Peak : 0.627625
CRC32 hash (test run) : 66907BF4
CRC32 hash : 66907BF4
CRC32 hash (skip zero) : 8CD69B27
AccurateRip v1 signature : 10F2C7D1
AccurateRip v2 signature : 2B6F4765
->Track not present in AccurateRip database.
Statistics
Read error : 0
Jitter error (maybe fixed) : 0
Retry sector count : 0
Damaged sector count : 0
Track 03
Filename : /Users/Shared/Grabbed/Joe McPhee/F 1971 - Nation Time/03 - Scorpio's Dance.flac
Track gain : -4.78 dB
Peak : 0.784088
CRC32 hash (test run) : 40DA209F
CRC32 hash : 40DA209F
CRC32 hash (skip zero) : 57E49AFD
AccurateRip v1 signature : 3A04A3AF
AccurateRip v2 signature : 1A6914AD
->Track not present in AccurateRip database.
Statistics
Read error : 0
Jitter error (maybe fixed) : 0
Retry sector count : 0
Damaged sector count : 0
No errors occurred
End of status report
-----BEGIN XLD SIGNATURE-----
aaag2gj9vGsWmD7ZckyAOm.PPEbB7pC1J43Kc3whuzn6ETDCmb_MlNihgIuPuVi2nttZqnVXOOwbi0aCJEPWUQBOyjHliMHyI8CK_7i
-----END XLD SIGNATURE-----
 
CD 2 : Black Magic Man
X Lossless Decoder version 20141129 (148.1)
XLD extraction logfile from 2015-03-16 02:46:02 +0300
Joe McPhee / Black Magic Man
Used drive : HL-DT-ST DVDRW GX30N (revision RP09)
Media type : Pressed CD
Ripper mode : XLD Secure Ripper
Disable audio cache : OK for the drive with a cache less than 1375KiB
Make use of C2 pointers : NO
Read offset correction : 6
Max retry count : 10000
Gap status : Analyzed, Appended (except HTOA)
TOC of the extracted CD
Track | Start | Length | Start sector | End sector
---------------------------------------------------------
1 | 00:00:00 | 21:36:08 | 0 | 97207
2 | 21:36:08 | 09:44:54 | 97208 | 141061
3 | 31:20:62 | 23:45:65 | 141062 | 248001
4 | 55:06:52 | 04:55:67 | 248002 | 270193
5 | 60:02:44 | 04:11:67 | 270194 | 289085
AccurateRip Summary
Disc not found in AccurateRip DB.
All Tracks
Album gain : -3.66 dB
Peak : 1.000000
Statistics
Read error : 0
Jitter error (maybe fixed) : 0
Retry sector count : 0
Damaged sector count : 0
Track 01
Filename : /Users/Shared/Grabbed/Joe McPhee/F 1970 - Black Magic Man/01 - Black Magic Man.flac
Pre-gap length : 00:02:00
Track gain : -1.22 dB
Peak : 0.974030
CRC32 hash (test run) : 84EA2536
CRC32 hash : 84EA2536
CRC32 hash (skip zero) : FE2A8519
AccurateRip v1 signature : BE6D15C1
AccurateRip v2 signature : E85BCB77
->Track not present in AccurateRip database.
Statistics
Read error : 0
Jitter error (maybe fixed) : 0
Retry sector count : 0
Damaged sector count : 0
Track 02
Filename : /Users/Shared/Grabbed/Joe McPhee/F 1970 - Black Magic Man/02 - Song for Lauren.flac
Track gain : -5.98 dB
Peak : 0.965759
CRC32 hash (test run) : 1145E022
CRC32 hash : 1145E022
CRC32 hash (skip zero) : F4E9C88D
AccurateRip v1 signature : 69813C37
AccurateRip v2 signature : B9DF6540
->Track not present in AccurateRip database.
Statistics
Read error : 0
Jitter error (maybe fixed) : 0
Retry sector count : 0
Damaged sector count : 0
Track 03
Filename : /Users/Shared/Grabbed/Joe McPhee/F 1970 - Black Magic Man/03 - Hymn for the Dargon Kings.flac
Track gain : -3.46 dB
Peak : 1.000000
CRC32 hash (test run) : 12F4887E
CRC32 hash : 12F4887E
CRC32 hash (skip zero) : D51A3A43
AccurateRip v1 signature : B61F6E07
AccurateRip v2 signature : 4F3259EC
->Track not present in AccurateRip database.
Statistics
Read error : 0
Jitter error (maybe fixed) : 0
Retry sector count : 0
Damaged sector count : 0
Track 04
Filename : /Users/Shared/Grabbed/Joe McPhee/F 1970 - Black Magic Man/04 - Song for Lauren, alternate 1.flac
Track gain : -3.05 dB
Peak : 0.977997
CRC32 hash (test run) : 2CCB0EC1
CRC32 hash : 2CCB0EC1
CRC32 hash (skip zero) : 0E3DB702
AccurateRip v1 signature : DAD96B61
AccurateRip v2 signature : E9C78AF1
->Track not present in AccurateRip database.
Statistics
Read error : 0
Jitter error (maybe fixed) : 0
Retry sector count : 0
Damaged sector count : 0
Track 05
Filename : /Users/Shared/Grabbed/Joe McPhee/F 1970 - Black Magic Man/05 - Song for Lauren, alternate 2.flac
Track gain : -3.59 dB
Peak : 0.928772
CRC32 hash (test run) : ADA47E41
CRC32 hash : ADA47E41
CRC32 hash (skip zero) : 68021B4A
AccurateRip v1 signature : 18371455
AccurateRip v2 signature : F110CA45
->Track not present in AccurateRip database.
Statistics
Read error : 0
Jitter error (maybe fixed) : 0
Retry sector count : 0
Damaged sector count : 0
No errors occurred
End of status report
-----BEGIN XLD SIGNATURE-----
semzD9VPQ3zWYzyN3RM1yWX2WMR35Bg7mVZu0x7QFawrID9UweWFm9FAou6jbZPUWgrRYc6.qbTutmW7Y9K1fSNAKNKYSpLzXbftVXm
-----END XLD SIGNATURE-----
 
CD 3 : Nation Time Preview, 1969
X Lossless Decoder version 20141129 (148.1)
XLD extraction logfile from 2015-03-16 22:53:08 +0300
Joe McPhee / Nation Time Preview
Used drive : HL-DT-ST DVDRW GX30N (revision RP09)
Media type : Pressed CD
Ripper mode : XLD Secure Ripper
Disable audio cache : OK for the drive with a cache less than 1375KiB
Make use of C2 pointers : NO
Read offset correction : 6
Max retry count : 10000
Gap status : Analyzed, Appended (except HTOA)
TOC of the extracted CD
Track | Start | Length | Start sector | End sector
---------------------------------------------------------
1 | 00:00:00 | 07:03:61 | 0 | 31785
2 | 07:03:61 | 09:21:69 | 31786 | 73929
3 | 16:25:55 | 12:19:50 | 73930 | 129404
4 | 28:45:30 | 10:11:47 | 129405 | 175276
5 | 38:57:02 | 15:41:22 | 175277 | 245873
6 | 54:38:24 | 02:33:01 | 245874 | 257349
AccurateRip Summary
Disc not found in AccurateRip DB.
All Tracks
Album gain : -5.37 dB
Peak : 1.000000
Statistics
Read error : 0
Jitter error (maybe fixed) : 0
Retry sector count : 0
Damaged sector count : 0
Track 01
Filename : /Users/Shared/Grabbed/Joe McPhee/F 1969 - Nation Time Preview/01 - Nation Time.flac
Pre-gap length : 00:02:00
Track gain : -5.32 dB
Peak : 0.866516
CRC32 hash (test run) : 6F443112
CRC32 hash : 6F443112
CRC32 hash (skip zero) : 6E30DEA9
AccurateRip v1 signature : EFF49B79
AccurateRip v2 signature : 8F654C7E
->Track not present in AccurateRip database.
Statistics
Read error : 0
Jitter error (maybe fixed) : 0
Retry sector count : 0
Damaged sector count : 0
Track 02
Filename : /Users/Shared/Grabbed/Joe McPhee/F 1969 - Nation Time Preview/02 - Untitled.flac
Track gain : -5.64 dB
Peak : 0.899780
CRC32 hash (test run) : 8691440F
CRC32 hash : 8691440F
CRC32 hash (skip zero) : 7F2A94FE
AccurateRip v1 signature : 8540A57E
AccurateRip v2 signature : 430B7CC1
->Track not present in AccurateRip database.
Statistics
Read error : 0
Jitter error (maybe fixed) : 0
Retry sector count : 0
Damaged sector count : 0
Track 03
Filename : /Users/Shared/Grabbed/Joe McPhee/F 1969 - Nation Time Preview/03 - Milestones.flac
Track gain : -6.17 dB
Peak : 0.999969
CRC32 hash (test run) : A25D71F3
CRC32 hash : A25D71F3
CRC32 hash (skip zero) : E7321D31
AccurateRip v1 signature : 2A72DAEB
AccurateRip v2 signature : 944CE891
->Track not present in AccurateRip database.
Statistics
Read error : 0
Jitter error (maybe fixed) : 0
Retry sector count : 0
Damaged sector count : 0
Track 04
Filename : /Users/Shared/Grabbed/Joe McPhee/F 1969 - Nation Time Preview/04 - My Funny Valentine.flac
Track gain : -4.21 dB
Peak : 1.000000
CRC32 hash (test run) : 9F3952FC
CRC32 hash : 9F3952FC
CRC32 hash (skip zero) : 89D874EC
AccurateRip v1 signature : 569E8039
AccurateRip v2 signature : FE742DDA
->Track not present in AccurateRip database.
Statistics
Read error : 0
Jitter error (maybe fixed) : 0
Retry sector count : 0
Damaged sector count : 0
Track 05
Filename : /Users/Shared/Grabbed/Joe McPhee/F 1969 - Nation Time Preview/05 - Bag's Groove.flac
Track gain : -3.11 dB
Peak : 0.994202
CRC32 hash (test run) : 8110D46D
CRC32 hash : 8110D46D
CRC32 hash (skip zero) : A2BB234D
AccurateRip v1 signature : 01E3BF9E
AccurateRip v2 signature : FF5E116F
->Track not present in AccurateRip database.
Statistics
Read error : 0
Jitter error (maybe fixed) : 0
Retry sector count : 0
Damaged sector count : 0
Track 06
Filename : /Users/Shared/Grabbed/Joe McPhee/F 1969 - Nation Time Preview/06 - Breakaway Theme.flac
Track gain : -6.46 dB
Peak : 0.999969
CRC32 hash (test run) : 9964039C
CRC32 hash : 9964039C
CRC32 hash (skip zero) : 0531E247
AccurateRip v1 signature : 4A95D799
AccurateRip v2 signature : A77E95EE
->Track not present in AccurateRip database.
Statistics
Read error : 0
Jitter error (maybe fixed) : 0
Retry sector count : 0
Damaged sector count : 0
No errors occurred
End of status report
-----BEGIN XLD SIGNATURE-----
F6o7ravUKj6CcB0xE5N_CJf4jyPS_BERL0ZHk5M.DWRTyjJZvJqDiHxZGJg.DAw.u7o4ZEfLqefAntgXdLpBA.m0MK__2O.8vu6_grK
-----END XLD SIGNATURE-----
 
CD 4 : The Vassar Sessions, 1970
X Lossless Decoder version 20141129 (148.1)
XLD extraction logfile from 2015-03-16 23:26:35 +0300
Joe McPhee / The Vassar Sessions
Used drive : HL-DT-ST DVDRW GX30N (revision RP09)
Media type : Pressed CD
Ripper mode : XLD Secure Ripper
Disable audio cache : OK for the drive with a cache less than 1375KiB
Make use of C2 pointers : NO
Read offset correction : 6
Max retry count : 10000
Gap status : Analyzed, Appended (except HTOA)
TOC of the extracted CD
Track | Start | Length | Start sector | End sector
---------------------------------------------------------
1 | 00:00:00 | 11:20:38 | 0 | 51037
2 | 11:20:38 | 11:10:57 | 51038 | 101344
3 | 22:31:20 | 08:28:71 | 101345 | 139515
4 | 31:00:16 | 17:31:57 | 139516 | 218397
5 | 48:31:73 | 22:52:47 | 218398 | 321344
6 | 71:24:45 | 06:43:53 | 321345 | 351622
AccurateRip Summary
Disc not found in AccurateRip DB.
All Tracks
Album gain : -3.85 dB
Peak : 0.985809
Statistics
Read error : 0
Jitter error (maybe fixed) : 0
Retry sector count : 0
Damaged sector count : 0
Track 01
Filename : /Users/Shared/Grabbed/Joe McPhee/F 1970 - The Vassar Sessions/01 - Cold Sweat.flac
Pre-gap length : 00:02:00
Track gain : -4.91 dB
Peak : 0.861359
CRC32 hash (test run) : FC1311F2
CRC32 hash : FC1311F2
CRC32 hash (skip zero) : 214456E7
AccurateRip v1 signature : 57532865
AccurateRip v2 signature : B5D31355
->Track not present in AccurateRip database.
Statistics
Read error : 0
Jitter error (maybe fixed) : 0
Retry sector count : 0
Damaged sector count : 0
Track 02
Filename : /Users/Shared/Grabbed/Joe McPhee/F 1970 - The Vassar Sessions/02 - Contemplation.flac
Track gain : -4.99 dB
Peak : 0.985809
CRC32 hash (test run) : 86F5BB6C
CRC32 hash : 86F5BB6C
CRC32 hash (skip zero) : 71869B3A
AccurateRip v1 signature : 051FA1E9
AccurateRip v2 signature : 43EC6AF5
->Track not present in AccurateRip database.
Statistics
Read error : 0
Jitter error (maybe fixed) : 0
Retry sector count : 0
Damaged sector count : 0
Track 03
Filename : /Users/Shared/Grabbed/Joe McPhee/F 1970 - The Vassar Sessions/03 - Spring Street.flac
Track gain : -2.47 dB
Peak : 0.863281
CRC32 hash (test run) : BEC0EC5C
CRC32 hash : BEC0EC5C
CRC32 hash (skip zero) : CE8639DA
AccurateRip v1 signature : C176EED4
AccurateRip v2 signature : 9B85FE32
->Track not present in AccurateRip database.
Statistics
Read error : 0
Jitter error (maybe fixed) : 0
Retry sector count : 0
Damaged sector count : 0
Track 04
Filename : /Users/Shared/Grabbed/Joe McPhee/F 1970 - The Vassar Sessions/04 - Hymn of the Dragon Kings.flac
Track gain : -3.28 dB
Peak : 0.839844
CRC32 hash (test run) : 884BFB3C
CRC32 hash : 884BFB3C
CRC32 hash (skip zero) : 4F9DA0EF
AccurateRip v1 signature : 248E2B5F
AccurateRip v2 signature : A39566D2
->Track not present in AccurateRip database.
Statistics
Read error : 0
Jitter error (maybe fixed) : 0
Retry sector count : 0
Damaged sector count : 0
Track 05
Filename : /Users/Shared/Grabbed/Joe McPhee/F 1970 - The Vassar Sessions/05 - Sunshower.flac
Track gain : -2.56 dB
Peak : 0.777283
CRC32 hash (test run) : 8296646F
CRC32 hash : 8296646F
CRC32 hash (skip zero) : 841ED46A
AccurateRip v1 signature : 4F8E5B30
AccurateRip v2 signature : 1DA22DC2
->Track not present in AccurateRip database.
Statistics
Read error : 0
Jitter error (maybe fixed) : 0
Retry sector count : 0
Damaged sector count : 0
Track 06
Filename : /Users/Shared/Grabbed/Joe McPhee/F 1970 - The Vassar Sessions/06 - Untitled.flac
Track gain : -2.21 dB
Peak : 0.925995
CRC32 hash (test run) : 641A787C
CRC32 hash : 641A787C
CRC32 hash (skip zero) : 4455E997
AccurateRip v1 signature : D7687748
AccurateRip v2 signature : 3BEBA899
->Track not present in AccurateRip database.
Statistics
Read error : 0
Jitter error (maybe fixed) : 0
Retry sector count : 0
Damaged sector count : 0
No errors occurred
End of status report
-----BEGIN XLD SIGNATURE-----
hm5k6akzBhxR4_6jYsgFm6wFnjDgELu_Y.YGmyTaAK7tFCiyCURgDrGeNbswImRYNUMgKWua9fkcdSH6zA_AEL5PqAPCfIppMYDMHuq
-----END XLD SIGNATURE-----
 
Содержание индексной карты (.CUE)
 
CD 1 : Nation Time
TITLE "Nation Time"
PERFORMER "Joe McPhee"
REM GENRE "Free Jazz"
REM DATE "1970"
REM DISCID 21099C03
FILE "01 - Nation Time.flac" WAVE
TRACK 01 AUDIO
TITLE "Nation Time"
PERFORMER "Joe McPhee"
REM COMMENT "Recorded live on December 12, 1970 at Chicago Hall at Vassar College Urban Center for Black Studies"
INDEX 01 00:00:00
FILE "02 - Shakey Jake.flac" WAVE
TRACK 02 AUDIO
TITLE "Shakey Jake"
PERFORMER "Joe McPhee"
REM COMMENT "Recorded live on December 13, 1970 at Chicago Hall at Vassar College Urban Center for Black Studies"
INDEX 01 00:00:00
FILE "03 - Scorpio's Dance.flac" WAVE
TRACK 03 AUDIO
TITLE "Scorpio's Dance"
PERFORMER "Joe McPhee"
REM COMMENT "Recorded live on December 12, 1970 at Chicago Hall at Vassar College Urban Center for Black Studies"
INDEX 01 00:00:00
 
CD 2 : Black Magic Man
TITLE "Black Magic Man"
PERFORMER "Joe McPhee"
REM GENRE "Free Jazz"
REM DATE "1970"
REM DISCID 440F0E05
REM REPLAYGAIN_ALBUM_GAIN -3.66 dB
REM REPLAYGAIN_ALBUM_PEAK 1.000000
FILE "01 - Black Magic Man.flac" WAVE
TRACK 01 AUDIO
TITLE "Black Magic Man"
PERFORMER "Joe McPhee"
REM COMMENT "Recorded in concert at Vassar College, Poughkeepie N.Y. on December 12, 1970"
REM REPLAYGAIN_TRACK_GAIN -1.22 dB
REM REPLAYGAIN_TRACK_PEAK 0.974030
INDEX 01 00:00:00
FILE "02 - Song for Lauren.flac" WAVE
TRACK 02 AUDIO
TITLE "Song for Lauren"
PERFORMER "Joe McPhee"
REM COMMENT "Recorded in concert at Vassar College, Poughkeepie N.Y. on December 12, 1970"
REM REPLAYGAIN_TRACK_GAIN -5.98 dB
REM REPLAYGAIN_TRACK_PEAK 0.965759
INDEX 01 00:00:00
FILE "03 - Hymn for the Dargon Kings.flac" WAVE
TRACK 03 AUDIO
TITLE "Hymn for the Dargon Kings"
PERFORMER "Joe McPhee"
REM COMMENT "Recorded in concert at Vassar College, Poughkeepie N.Y. on December 12, 1970"
REM REPLAYGAIN_TRACK_GAIN -3.46 dB
REM REPLAYGAIN_TRACK_PEAK 1.000000
INDEX 01 00:00:00
FILE "04 - Song for Lauren, alternate 1.flac" WAVE
TRACK 04 AUDIO
TITLE "Song for Lauren, alternate 1"
PERFORMER "Joe McPhee"
REM COMMENT "Recorded in concert at Vassar College, Poughkeepie N.Y. on December 13, 1970"
REM REPLAYGAIN_TRACK_GAIN -3.05 dB
REM REPLAYGAIN_TRACK_PEAK 0.977997
INDEX 01 00:00:00
FILE "05 - Song for Lauren, alternate 2.flac" WAVE
TRACK 05 AUDIO
TITLE "Song for Lauren, alternate 2"
PERFORMER "Joe McPhee"
REM COMMENT "Recorded in concert at Vassar College, Poughkeepie N.Y. on December 13, 1970"
REM REPLAYGAIN_TRACK_GAIN -3.59 dB
REM REPLAYGAIN_TRACK_PEAK 0.928772
INDEX 01 00:00:00
 
CD 3 : Nation Time Preview, 1969
TITLE "Nation Time Preview"
PERFORMER "Joe McPhee"
REM GENRE "Free Jazz"
REM DATE "1969"
REM DISCID 540D6706
REM REPLAYGAIN_ALBUM_GAIN -5.37 dB
REM REPLAYGAIN_ALBUM_PEAK 1.000000
REM COMPILATION TRUE
FILE "01 - Nation Time.flac" WAVE
TRACK 01 AUDIO
TITLE "Nation Time"
PERFORMER "Joe McPhee"
REM COMMENT "Recorded live at the Paddock, Poughkeepsie, New York, 1969"
REM REPLAYGAIN_TRACK_GAIN -5.32 dB
REM REPLAYGAIN_TRACK_PEAK 0.866516
INDEX 01 00:00:00
FILE "02 - Untitled.flac" WAVE
TRACK 02 AUDIO
TITLE "Untitled"
PERFORMER "Joe McPhee"
REM COMMENT "Recorded live at the Paddock, Poughkeepsie, New York, 1969"
REM REPLAYGAIN_TRACK_GAIN -5.64 dB
REM REPLAYGAIN_TRACK_PEAK 0.899780
INDEX 01 00:00:00
FILE "03 - Milestones.flac" WAVE
TRACK 03 AUDIO
TITLE "Milestones"
PERFORMER "Joe McPhee"
REM COMMENT "Recorded live at Vassar College, 1969-10-23"
REM REPLAYGAIN_TRACK_GAIN -6.17 dB
REM REPLAYGAIN_TRACK_PEAK 0.999969
INDEX 01 00:00:00
FILE "04 - My Funny Valentine.flac" WAVE
TRACK 04 AUDIO
TITLE "My Funny Valentine"
PERFORMER "Joe McPhee"
REM COMMENT "Recorded live at Vassar College, 1969-10-23"
REM REPLAYGAIN_TRACK_GAIN -4.21 dB
REM REPLAYGAIN_TRACK_PEAK 1.000000
INDEX 01 00:00:00
FILE "05 - Bag's Groove.flac" WAVE
TRACK 05 AUDIO
TITLE "Bag's Groove"
PERFORMER "Joe McPhee"
REM COMMENT "Recorded live at Vassar College, 1969-10-23"
REM REPLAYGAIN_TRACK_GAIN -3.11 dB
REM REPLAYGAIN_TRACK_PEAK 0.994202
INDEX 01 00:00:00
FILE "06 - Breakaway Theme.flac" WAVE
TRACK 06 AUDIO
TITLE "Breakaway Theme"
PERFORMER "Joe McPhee"
REM COMMENT "Recorded live at Vassar College, 1969-10-23"
REM REPLAYGAIN_TRACK_GAIN -6.46 dB
REM REPLAYGAIN_TRACK_PEAK 0.999969
INDEX 01 00:00:00
 
CD 4 : The Vassar Sessions, 1970
TITLE "The Vassar Sessions"
PERFORMER "Joe McPhee"
REM GENRE "Free Jazz"
REM DATE "1970"
REM DISCID 52125006
REM REPLAYGAIN_ALBUM_GAIN -3.85 dB
REM REPLAYGAIN_ALBUM_PEAK 0.985809
FILE "01 - Cold Sweat.flac" WAVE
TRACK 01 AUDIO
TITLE "Cold Sweat"
PERFORMER "Joe McPhee"
REM COMMENT "Recoded live at Chicago Hall, Vassar College Urban Center for Black Studies, 1970-12-12"
REM REPLAYGAIN_TRACK_GAIN -4.91 dB
REM REPLAYGAIN_TRACK_PEAK 0.861359
INDEX 01 00:00:00
FILE "02 - Contemplation.flac" WAVE
TRACK 02 AUDIO
TITLE "Contemplation"
PERFORMER "Joe McPhee"
REM COMMENT "Recoded live at Chicago Hall, Vassar College Urban Center for Black Studies, 1970-12-12"
REM REPLAYGAIN_TRACK_GAIN -4.99 dB
REM REPLAYGAIN_TRACK_PEAK 0.985809
INDEX 01 00:00:00
FILE "03 - Spring Street.flac" WAVE
TRACK 03 AUDIO
TITLE "Spring Street"
PERFORMER "Joe McPhee"
REM COMMENT "Recoded live at Chicago Hall, Vassar College Urban Center for Black Studies, 1970-12-12"
REM REPLAYGAIN_TRACK_GAIN -2.47 dB
REM REPLAYGAIN_TRACK_PEAK 0.863281
INDEX 01 00:00:00
FILE "04 - Hymn of the Dragon Kings.flac" WAVE
TRACK 04 AUDIO
TITLE "Hymn of the Dragon Kings"
PERFORMER "Joe McPhee"
REM COMMENT "Recoded live at Chicago Hall, Vassar College Urban Center for Black Studies, 1970-12-13"
REM REPLAYGAIN_TRACK_GAIN -3.28 dB
REM REPLAYGAIN_TRACK_PEAK 0.839844
INDEX 01 00:00:00
FILE "05 - Sunshower.flac" WAVE
TRACK 05 AUDIO
TITLE "Sunshower"
PERFORMER "Joe McPhee"
REM COMMENT "Recoded live at Chicago Hall, Vassar College Urban Center for Black Studies, 1970-12-13"
REM REPLAYGAIN_TRACK_GAIN -2.56 dB
REM REPLAYGAIN_TRACK_PEAK 0.777283
INDEX 01 00:00:00
FILE "06 - Untitled.flac" WAVE
TRACK 06 AUDIO
TITLE "Untitled"
PERFORMER "Joe McPhee"
REM COMMENT "Recoded live at Chicago Hall, Vassar College Urban Center for Black Studies, 1970-12-13"
REM REPLAYGAIN_TRACK_GAIN -2.21 dB
REM REPLAYGAIN_TRACK_PEAK 0.925995
INDEX 01 00:00:00
... релизы с участием JOE McPHEE на трекере ...
09:52
351
Нет комментариев. Ваш будет первым!