Вы используете незарегистрированную версию компонента "Вкладки"!

Поиск

(Avant-Garde Jazz / Free Improvisation / Modern Creative) [CD] Matthieu Donarier & Albert van Veenendaal's Planetarium - The Visible Ones - 2014, FLAC (tracks+.cue), lossless

(Avant-Garde Jazz / Free Improvisation / Modern Creative) [CD] Matthieu Donarier & Albert van Veenendaal's Planetarium - The Visible Ones - 2014, FLAC (tracks+.cue), lossless
Треклист:
Matthieu Donarier & Albert van Veenendaal's Planetarium - The Visible Ones
Жанр: Avant-Garde Jazz / Free Improvisation / Modern Creative
Носитель: CD
Страна-производитель диска (релиза): Portugal
Год издания: 2014
Издатель (лейбл): Clean Feed
Номер по каталогу: CF296CD
Аудиокодек: FLAC (*.flac)
Тип рипа: tracks+.cue
Битрейт аудио: lossless
Продолжительность: 00:38:35
Источник (релизер): what.cd / спасибо Bezbiletny
Наличие сканов в содержимом раздачи: да
Треклист:
1. Blue Rotterdam (03:18)
2. Univers Elastique (03:47)
3. Calling (02:52)
4. The Hidden Ones (02:44)
5. Vernell Ho (03:23)
6. Radio Silence 3:16)
7. Danzon (01:07)
8. The Visible Ones (04:22)
9. Comets (01:24)
10. Choral & Riffs (04:40)
11. Whale Theory (03:27)
12. Cloud (04:11)
Доп. информация:
Musicians:
Matthieu Donarier - soprano & tenor sax
Albert van Veenendaal - piano, prepared piano
Matthieu Donarier & Albert van Veenendaal's Planetarium - The Visible Ones cleanfeed-records.com
Planetarium planetarium-duet.blogspot.com
Albert van Veenendaal Official Site
Matthieu Donarier Official Site
Matthieu Donarier from Wikipedia, the free encyclopedia
 
... photo ...
 
... back ...
 
Лог создания рипа
Exact Audio Copy V1.0 beta 3 from 29. August 2011
EAC extraction logfile from 21. June 2014, 19:48
Matthieu Donarier & Albert van Veenendaal's Planetarium / The Visible Ones
Used drive : TSSTcorpCD/DVDW SH-S182M Adapter: 2 ID: 0
Read mode : Secure
Utilize accurate stream : Yes
Defeat audio cache : Yes
Make use of C2 pointers : No
Read offset correction : 6
Overread into Lead-In and Lead-Out : No
Fill up missing offset samples with silence : Yes
Delete leading and trailing silent blocks : No
Null samples used in CRC calculations : Yes
Used interface : Installed external ASPI interface
Gap handling : Appended to previous track
Used output format : User Defined Encoder
Selected bitrate : 1024 kBit/s
Quality : High
Add ID3 tag : No
Command line compressor : C:\Program Files\eac-1.0beta3\FLAC\FLAC.EXE
Additional command line options : -8 -V -T "ARTIST=%artist%" -T "TITLE=%title%" -T "ALBUM=%albumtitle%" -T "DATE=%year%" -T "TRACKNUMBER=%tracknr%" -T "GENRE=%genre%" -T "PERFORMER=%albuminterpret%" -T "COMPOSER=%composer%" %haslyrics%--tag-from-file=LYRICS="%lyricsfile%"%haslyrics% -T "ALBUMARTIST=%albumartist%" -T "ALBUM ARTIST=%albumartist%" -T "DISCNUMBER=%cdnumber%" -T "TOTALDISCS=%totalcds%" -T "TOTALTRACKS=%numtracks%" -T "COMMENT=ivo" %source% -o %dest%
TOC of the extracted CD
Track | Start | Length | Start sector | End sector
---------------------------------------------------------
1 | 0:00.00 | 3:18.32 | 0 | 14881
2 | 3:18.32 | 3:47.01 | 14882 | 31907
3 | 7:05.33 | 2:52.31 | 31908 | 44838
4 | 9:57.64 | 2:44.15 | 44839 | 57153
5 | 12:42.04 | 3:23.20 | 57154 | 72398
6 | 16:05.24 | 3:16.21 | 72399 | 87119
7 | 19:21.45 | 1:07.33 | 87120 | 92177
8 | 20:29.03 | 4:22.16 | 92178 | 111843
9 | 24:51.19 | 1:24.67 | 111844 | 118210
10 | 26:16.11 | 4:40.67 | 118211 | 139277
11 | 30:57.03 | 3:27.09 | 139278 | 154811
12 | 34:24.12 | 4:11.55 | 154812 | 173691
Track 1
Filename E:\igor\eac\01 - Blue Rotterdam.wav
Pre-gap length 0:00:02.00
Peak level 98.0 %
Extraction speed 4.5 X
Track quality 100.0 %
Test CRC 508F5442
Copy CRC 508F5442
Track not present in AccurateRip database
Copy OK
Track 2
Filename E:\igor\eac\02 - Universe Elastique.wav
Peak level 97.9 %
Extraction speed 5.0 X
Track quality 100.0 %
Test CRC FA906F74
Copy CRC FA906F74
Track not present in AccurateRip database
Copy OK
Track 3
Filename E:\igor\eac\03 - Calling.wav
Peak level 98.0 %
Extraction speed 5.1 X
Track quality 100.0 %
Test CRC 4C6E9481
Copy CRC 4C6E9481
Track not present in AccurateRip database
Copy OK
Track 4
Filename E:\igor\eac\04 - The Hidden Ones.wav
Peak level 97.9 %
Extraction speed 5.3 X
Track quality 100.0 %
Test CRC 760119F2
Copy CRC 760119F2
Track not present in AccurateRip database
Copy OK
Track 5
Filename E:\igor\eac\05 - Vernell Ho.wav
Peak level 98.0 %
Extraction speed 5.8 X
Track quality 100.0 %
Test CRC 1972F4C5
Copy CRC 1972F4C5
Track not present in AccurateRip database
Copy OK
Track 6
Filename E:\igor\eac\06 - Radio Silence.wav
Peak level 97.9 %
Extraction speed 6.0 X
Track quality 100.0 %
Test CRC 4F6A63C3
Copy CRC 4F6A63C3
Track not present in AccurateRip database
Copy OK
Track 7
Filename E:\igor\eac\07 - Danzon.wav
Peak level 98.0 %
Extraction speed 4.6 X
Track quality 100.0 %
Test CRC 29E3BD69
Copy CRC 29E3BD69
Track not present in AccurateRip database
Copy OK
Track 8
Filename E:\igor\eac\08 - The Visible Ones.wav
Peak level 98.0 %
Extraction speed 6.6 X
Track quality 100.0 %
Test CRC 8567B9EF
Copy CRC 8567B9EF
Track not present in AccurateRip database
Copy OK
Track 9
Filename E:\igor\eac\09 - Comets.wav
Peak level 97.9 %
Extraction speed 5.4 X
Track quality 100.0 %
Test CRC 265BF872
Copy CRC 265BF872
Track not present in AccurateRip database
Copy OK
Track 10
Filename E:\igor\eac\10 - Choral & Riffs.wav
Peak level 98.0 %
Extraction speed 7.0 X
Track quality 100.0 %
Test CRC 6754029B
Copy CRC 6754029B
Track not present in AccurateRip database
Copy OK
Track 11
Filename E:\igor\eac\11 - Whale Theory.wav
Peak level 98.0 %
Extraction speed 6.1 X
Track quality 99.9 %
Test CRC 7D2E9105
Copy CRC 7D2E9105
Track not present in AccurateRip database
Copy OK
Track 12
Filename E:\igor\eac\12 - Cloud.wav
Peak level 97.9 %
Extraction speed 7.5 X
Track quality 100.0 %
Test CRC 8B0C7AF2
Copy CRC 8B0C7AF2
Track not present in AccurateRip database
Copy OK
None of the tracks are present in the AccurateRip database
No errors occurred
End of status report
---- CUETools DB Plugin V2.1.4
[CTDB TOCID: jJMQQfIpWN.cZkmS7NJRJDph1eE-] disk not present in database
Submit result: jJMQQfIpWN.cZkmS7NJRJDph1eE- has been uploaded
==== Log checksum 400C3AD659164097FF4BDB2723017FE4F07A28469285DC6D88D89ACC0D21682B ====
 
Содержание индексной карты (.CUE)
REM GENRE "Clean Feed 296"
REM DATE 2014
REM DISCID AC090B0C
REM COMMENT "ExactAudioCopy v1.0b3"
PERFORMER "Matthieu Donarier & Albert van Veenendaal's Planetarium"
TITLE "The Visible Ones"
FILE "01 - Blue Rotterdam.wav" WAVE
TRACK 01 AUDIO
TITLE "Blue Rotterdam"
PERFORMER "Matthieu Donarier & Albert van Veenendaal's Planetarium"
INDEX 01 00:00:00
FILE "02 - Universe Elastique.wav" WAVE
TRACK 02 AUDIO
TITLE "Universe Elastique"
PERFORMER "Matthieu Donarier & Albert van Veenendaal's Planetarium"
INDEX 01 00:00:00
FILE "03 - Calling.wav" WAVE
TRACK 03 AUDIO
TITLE "Calling"
PERFORMER "Matthieu Donarier & Albert van Veenendaal's Planetarium"
INDEX 01 00:00:00
FILE "04 - The Hidden Ones.wav" WAVE
TRACK 04 AUDIO
TITLE "The Hidden Ones"
PERFORMER "Matthieu Donarier & Albert van Veenendaal's Planetarium"
INDEX 01 00:00:00
FILE "05 - Vernell Ho.wav" WAVE
TRACK 05 AUDIO
TITLE "Vernell Ho"
PERFORMER "Matthieu Donarier & Albert van Veenendaal's Planetarium"
INDEX 01 00:00:00
FILE "06 - Radio Silence.wav" WAVE
TRACK 06 AUDIO
TITLE "Radio Silence"
PERFORMER "Matthieu Donarier & Albert van Veenendaal's Planetarium"
INDEX 01 00:00:00
FILE "07 - Danzon.wav" WAVE
TRACK 07 AUDIO
TITLE "Danzon"
PERFORMER "Matthieu Donarier & Albert van Veenendaal's Planetarium"
INDEX 01 00:00:00
FILE "08 - The Visible Ones.wav" WAVE
TRACK 08 AUDIO
TITLE "The Visible Ones"
PERFORMER "Matthieu Donarier & Albert van Veenendaal's Planetarium"
INDEX 01 00:00:00
FILE "09 - Comets.wav" WAVE
TRACK 09 AUDIO
TITLE "Comets"
PERFORMER "Matthieu Donarier & Albert van Veenendaal's Planetarium"
INDEX 01 00:00:00
FILE "10 - Choral & Riffs.wav" WAVE
TRACK 10 AUDIO
TITLE "Choral & Riffs"
PERFORMER "Matthieu Donarier & Albert van Veenendaal's Planetarium"
INDEX 01 00:00:00
FILE "11 - Whale Theory.wav" WAVE
TRACK 11 AUDIO
TITLE "Whale Theory"
PERFORMER "Matthieu Donarier & Albert van Veenendaal's Planetarium"
INDEX 01 00:00:00
FILE "12 - Cloud.wav" WAVE
TRACK 12 AUDIO
TITLE "Cloud"
PERFORMER "Matthieu Donarier & Albert van Veenendaal's Planetarium"
INDEX 01 00:00:00
По всем вопросам пишите личное сообщение пользователю M0p94ok.
10:52
164
Нет комментариев. Ваш будет первым!