Вы используете незарегистрированную версию компонента "Вкладки"!

Поиск

(Free Improvisation, Experimental, Electronic, Tzadik ‎) [CD] Mephista (Ikue Mori, Susie Ibarra, Sylvie Courvoisier) - Entomological Reflections - 2004, FLAC (tracks+.cue), lossless

(Free Improvisation, Experimental, Electronic, Tzadik ‎) [CD] Mephista (Ikue Mori, Susie Ibarra, Sylvie Courvoisier) - Entomological Reflections - 2004, FLAC (tracks+.cue), lossless
Треклист:
Mephista / Entomological Reflections
Жанр: Free Improvisation, Abstract, Experimental, Electronic
Носитель: CD
Страна-производитель диска (релиза): US
Год издания: 2004
Издатель (лейбл): Tzadik ‎
Номер по каталогу: TZ 7711
Аудиокодек: FLAC (*.flac)
Тип рипа: tracks+.cue
Битрейт аудио: lossless
Продолжительность: 56:24
Источник (релизер): cd
Наличие сканов в содержимом раздачи: нет
Треклист:
1. La Femme 100 Têtes 2:44
2. House 3:18
3. Drôle De Mots 5:31
4. Cardiogram 5:47
5. Void 3:44
6. Fractions 3:46
7. Entomological Souvenirs 2:53
8. Le Château De Cène 4:48
9. Fringe 1:50
10. Procession 4:10
11. Beloukia 2:43
12. Air 5:21
13. Apartment 0:46
14. Sans Mots 4:44
15. Shifting Roll 4:11
 
Лог создания рипа
Exact Audio Copy V1.0 beta 3 from 29. August 2011
EAC extraction logfile from 10. April 2015, 11:01
Mephista / Entomological Reflections
Used drive : ASUS DRW-24F1ST a Adapter: 0 ID: 0
Read mode : Secure
Utilize accurate stream : Yes
Defeat audio cache : Yes
Make use of C2 pointers : No
Read offset correction : 6
Overread into Lead-In and Lead-Out : No
Fill up missing offset samples with silence : Yes
Delete leading and trailing silent blocks : No
Null samples used in CRC calculations : Yes
Used interface : Native Win32 interface for Win NT & 2000
Gap handling : Appended to previous track
Used output format : User Defined Encoder
Selected bitrate : 320 kBit/s
Quality : High
Add ID3 tag : No
Command line compressor : D:\Programs\Exact Audio Copy\Flac\flac.exe
Additional command line options : -V -8 -T "Genre=%genre%" -T "Artist=%artist%" -T "Title=%title%" -T "Album=%albumtitle%" -T "Date=%year%" -T "Tracknumber=%tracknr%" -T "Comment=%comment%" %source%
TOC of the extracted CD
Track | Start | Length | Start sector | End sector
---------------------------------------------------------
1 | 0:00.00 | 2:46.02 | 0 | 12451
2 | 2:46.02 | 3:18.36 | 12452 | 27337
3 | 6:04.38 | 5:31.32 | 27338 | 52194
4 | 11:35.70 | 5:46.53 | 52195 | 78197
5 | 17:22.48 | 3:44.16 | 78198 | 95013
6 | 21:06.64 | 3:46.05 | 95014 | 111968
7 | 24:52.69 | 2:53.39 | 111969 | 124982
8 | 27:46.33 | 4:49.65 | 124983 | 146722
9 | 32:36.23 | 1:49.68 | 146723 | 154965
10 | 34:26.16 | 4:10.11 | 154966 | 173726
11 | 38:36.27 | 2:44.55 | 173727 | 186081
12 | 41:21.07 | 5:21.38 | 186082 | 210194
13 | 46:42.45 | 0:46.60 | 210195 | 213704
14 | 47:29.30 | 4:43.50 | 213705 | 234979
15 | 52:13.05 | 4:11.12 | 234980 | 253816
Track 1
Filename D:\EAC\01 La femme 100 tetes.wav
Pre-gap length 0:00:02.00
Peak level 98.8 %
Extraction speed 4.0 X
Track quality 100.0 %
Test CRC BA913087
Copy CRC BA913087
Copy OK
Track 2
Filename D:\EAC\02 House.wav
Pre-gap length 0:00:01.45
Peak level 98.8 %
Extraction speed 4.5 X
Track quality 100.0 %
Test CRC 56D2C012
Copy CRC 56D2C012
Copy OK
Track 3
Filename D:\EAC\03 Drole de mots.wav
Peak level 98.8 %
Extraction speed 5.2 X
Track quality 100.0 %
Test CRC EFB52C22
Copy CRC EFB52C22
Copy OK
Track 4
Filename D:\EAC\04 Cardiogram.wav
Peak level 98.8 %
Extraction speed 5.8 X
Track quality 100.0 %
Test CRC 053A2D7C
Copy CRC 053A2D7C
Copy OK
Track 5
Filename D:\EAC\05 Void.wav
Peak level 98.8 %
Extraction speed 5.9 X
Track quality 100.0 %
Test CRC 0D057211
Copy CRC 0D057211
Copy OK
Track 6
Filename D:\EAC\06 Fractions.wav
Peak level 98.8 %
Extraction speed 5.4 X
Track quality 99.9 %
Test CRC 1680537E
Copy CRC 1680537E
Copy OK
Track 7
Filename D:\EAC\07 Entomological Souvenirs.wav
Peak level 98.8 %
Extraction speed 6.1 X
Track quality 100.0 %
Test CRC 0F79E9A0
Copy CRC 0F79E9A0
Copy OK
Track 8
Filename D:\EAC\08 La chateau de Cene.wav
Peak level 98.8 %
Extraction speed 6.9 X
Track quality 100.0 %
Test CRC 06C7CEBB
Copy CRC 06C7CEBB
Copy OK
Track 9
Filename D:\EAC\09 Fringe.wav
Pre-gap length 0:00:01.39
Peak level 98.8 %
Extraction speed 4.7 X
Track quality 99.9 %
Test CRC 5675964D
Copy CRC 5675964D
Copy OK
Track 10
Filename D:\EAC\10 Procession.wav
Peak level 98.8 %
Extraction speed 7.2 X
Track quality 100.0 %
Test CRC E80DE70B
Copy CRC E80DE70B
Copy OK
Track 11
Filename D:\EAC\11 Beloukia.wav
Peak level 100.0 %
Extraction speed 6.9 X
Track quality 100.0 %
Test CRC 6559B638
Copy CRC 6559B638
Copy OK
Track 12
Filename D:\EAC\12 Air.wav
Pre-gap length 0:00:01.23
Peak level 78.4 %
Extraction speed 7.9 X
Track quality 100.0 %
Test CRC 7CDBFF77
Copy CRC 7CDBFF77
Copy OK
Track 13
Filename D:\EAC\13 Apartment.wav
Peak level 98.8 %
Extraction speed 3.4 X
Track quality 99.7 %
Test CRC 263476A0
Copy CRC 263476A0
Copy OK
Track 14
Filename D:\EAC\14 Sans mots.wav
Peak level 98.8 %
Extraction speed 8.1 X
Track quality 100.0 %
Test CRC 976A5BDA
Copy CRC 976A5BDA
Copy OK
Track 15
Filename D:\EAC\15 Shifting Roll.wav
Peak level 98.8 %
Extraction speed 8.2 X
Track quality 100.0 %
Test CRC 3FDE0BE2
Copy CRC 3FDE0BE2
Copy OK
No errors occurred
End of status report
==== Log checksum B5B46FE0604DC7468A6883A10D32EB898B6E7BFBA3FD6F9ACEF19526E2ED88B3 ====
 
Содержание индексной карты (.CUE)
REM GENRE Avantgarde
REM DATE 2004
REM DISCID E70D380F
REM COMMENT "ExactAudioCopy v1.0b3"
PERFORMER "Mephista"
TITLE "Entomological Reflections"
FILE "01 La femme 100 tetes.wav" WAVE
TRACK 01 AUDIO
TITLE "La femme 100 tetes"
PERFORMER "Mephista"
INDEX 01 00:00:00
TRACK 02 AUDIO
TITLE "House"
PERFORMER "Mephista"
INDEX 00 02:44:32
FILE "02 House.wav" WAVE
INDEX 01 00:00:00
FILE "03 Drole de mots.wav" WAVE
TRACK 03 AUDIO
TITLE "Drole de mots"
PERFORMER "Mephista"
INDEX 01 00:00:00
FILE "04 Cardiogram.wav" WAVE
TRACK 04 AUDIO
TITLE "Cardiogram"
PERFORMER "Mephista"
INDEX 01 00:00:00
FILE "05 Void.wav" WAVE
TRACK 05 AUDIO
TITLE "Void"
PERFORMER "Mephista"
INDEX 01 00:00:00
FILE "06 Fractions.wav" WAVE
TRACK 06 AUDIO
TITLE "Fractions"
PERFORMER "Mephista"
INDEX 01 00:00:00
FILE "07 Entomological Souvenirs.wav" WAVE
TRACK 07 AUDIO
TITLE "Entomological Souvenirs"
PERFORMER "Mephista"
INDEX 01 00:00:00
FILE "08 La chateau de Cene.wav" WAVE
TRACK 08 AUDIO
TITLE "La chateau de Cene"
PERFORMER "Mephista"
INDEX 01 00:00:00
TRACK 09 AUDIO
TITLE "Fringe"
PERFORMER "Mephista"
INDEX 00 04:48:26
FILE "09 Fringe.wav" WAVE
INDEX 01 00:00:00
FILE "10 Procession.wav" WAVE
TRACK 10 AUDIO
TITLE "Procession"
PERFORMER "Mephista"
INDEX 01 00:00:00
FILE "11 Beloukia.wav" WAVE
TRACK 11 AUDIO
TITLE "Beloukia"
PERFORMER "Mephista"
INDEX 01 00:00:00
TRACK 12 AUDIO
TITLE "Air"
PERFORMER "Mephista"
INDEX 00 02:43:32
FILE "12 Air.wav" WAVE
INDEX 01 00:00:00
FILE "13 Apartment.wav" WAVE
TRACK 13 AUDIO
TITLE "Apartment"
PERFORMER "Mephista"
INDEX 01 00:00:00
FILE "14 Sans mots.wav" WAVE
TRACK 14 AUDIO
TITLE "Sans mots"
PERFORMER "Mephista"
INDEX 01 00:00:00
FILE "15 Shifting Roll.wav" WAVE
TRACK 15 AUDIO
TITLE "Shifting Roll"
PERFORMER "Mephista"
INDEX 01 00:00:00
Доп. информация: Recorded November 11, 2003 at Kampo Studios, NYC
 
Об альбоме (сборнике)
As part of Mephista, a collective trio with pianist Sylvie Courvoisier and laptop/electronic artist Ikue Mori, Ibarra flexes her improvisatory muscle. Entomological Reflections, their second release, demonstrates the affinity the three have developed. The spacious and mostly improvised pieces explore a variety of sonic textures and moods, which allows Mori's voice to cut through. All three show patience in their playing, allowing sounds to sustain and dynamic touches to mold the pieces. Ibarra employs a range of fluttering brushes, bells, and gongs, while Courvoisier strums and plucks inside the piano, to match Mori's mysterious sounds. "Cardiogram" starts with the repetitive plunking of piano keys, which Mori mimics until the piece reaches a dramatic crescendo of piano and cymbals. The unhurried impressionistic approach of Entomological Reflections, as the name implies, is meant to be contemplative, to absorb fully the heightened interaction between improvisers.
 
Состав
Artwork By [Cover Collage] – Ikue Mori
Drums – Susie Ibarra
Electronics – Ikue Mori
Executive-Producer – John Zorn
Piano – Sylvie Courvoisier
Producer – Mephista
Recorded By, Mixed By – Jamie Saft
По всем вопросам пишите личное сообщение пользователю M0p94ok.
10:53
233
Нет комментариев. Ваш будет первым!