Вы используете незарегистрированную версию компонента "Вкладки"!

Поиск

(Avant-Garde Jazz, Free Improvisation) [CD] David Helbock's Random / Control - Think Of Two - 2014, FLAC (tracks+.cue), lossless

(Avant-Garde Jazz, Free Improvisation) [CD] David Helbock's Random / Control - Think Of Two - 2014, FLAC (tracks+.cue), lossless
Треклист:
David Helbock's Random / Control - Think Of Two
Жанр: Avant-Garde Jazz, Free Improvisation
Носитель: CD
Год издания: 2014
Издатель (лейбл): Traumton Studios
Номер по каталогу: 4599
Страна: Germany
Аудиокодек: FLAC (*.flac)
Тип рипа: tracks+.cue
Битрейт аудио: lossless
Продолжительность: 1:17:57
Источник (релизер): CD (спасибо kewagi)
Наличие сканов в содержимом раздачи: нет
Треклист:
01. Voa, Ilza (5:19)
02. 'Round Midnight (7:05)
03. Nas Quebradas (5:40)
04. Raise Four (6:19)
05. Música das Nuvens e do Chão (8:18)
06. Trinkle Tinkle (4:20)
07. Tupizando (7:14)
08. Pannonica (7:10)
09. Palhinha do Hermeto e da Aline (0:56)
10. Para Hermeto (6:19)
11. Floresta (7:11)
12. Think of One (12:07)
 
Лог создания рипа
X Lossless Decoder version 20131102 (145.0)
XLD extraction logfile from 2014-01-29 17:14:21 +0100
David Helbock's Random/Control / Think of Two
Used drive : MATSHITA DVD-R UJ-8A8 (revision HB14)
Media type : Pressed CD
Ripper mode : XLD Secure Ripper
Disable audio cache : OK for the drive with a cache less than 1375KiB
Make use of C2 pointers : NO
Read offset correction : 102
Max retry count : 100
Gap status : Analyzed, Appended (except HTOA)
TOC of the extracted CD
Track | Start | Length | Start sector | End sector
---------------------------------------------------------
1 | 00:00:00 | 05:19:10 | 0 | 23934
2 | 05:19:10 | 07:05:09 | 23935 | 55818
3 | 12:24:19 | 05:40:09 | 55819 | 81327
4 | 18:04:28 | 06:19:00 | 81328 | 109752
5 | 24:23:28 | 08:17:47 | 109753 | 147074
6 | 32:41:00 | 04:19:47 | 147075 | 166546
7 | 37:00:47 | 07:13:47 | 166547 | 199068
8 | 44:14:19 | 07:09:47 | 199069 | 231290
9 | 51:23:66 | 00:55:65 | 231291 | 235480
10 | 52:19:56 | 06:19:19 | 235481 | 263924
11 | 58:39:00 | 07:10:47 | 263925 | 296221
12 | 65:49:47 | 12:07:17 | 296222 | 350763
AccurateRip Summary
Disc not found in AccurateRip DB.
All Tracks
Album gain : -2.98 dB
Peak : 0.966888
Statistics
Read error : 0
Jitter error (maybe fixed) : 0
Retry sector count : 0
Damaged sector count : 0
Track 01
Filename : /Users/kewagi/Music/Rips/David Helbock's RandomпјЏControl - Think of Two (2014) [FLAC]/01 Voa, Ilza.flac
Pre-gap length : 00:02:00
Track gain : -3.30 dB
Peak : 0.966827
CRC32 hash (test run) : 2625C5A0
CRC32 hash : 2625C5A0
CRC32 hash (skip zero) : 09CF2DAE
AccurateRip v1 signature : E757A15A
AccurateRip v2 signature : FEA9B5BD
->Track not present in AccurateRip database.
Statistics
Read error : 0
Jitter error (maybe fixed) : 0
Retry sector count : 0
Damaged sector count : 0
Track 02
Filename : /Users/kewagi/Music/Rips/David Helbock's RandomпјЏControl - Think of Two (2014) [FLAC]/02 'Round Midnight.flac
Pre-gap length : 00:02:00
Track gain : 0.13 dB
Peak : 0.790497
CRC32 hash (test run) : 191ACA49
CRC32 hash : 191ACA49
CRC32 hash (skip zero) : 2259BF45
AccurateRip v1 signature : C8C6915A
AccurateRip v2 signature : 04222E99
->Track not present in AccurateRip database.
Statistics
Read error : 0
Jitter error (maybe fixed) : 0
Retry sector count : 0
Damaged sector count : 0
Track 03
Filename : /Users/kewagi/Music/Rips/David Helbock's RandomпјЏControl - Think of Two (2014) [FLAC]/03 Nas Quebradas.flac
Pre-gap length : 00:06:37
Track gain : -2.17 dB
Peak : 0.966858
CRC32 hash (test run) : DE9AAD00
CRC32 hash : DE9AAD00
CRC32 hash (skip zero) : 0B8DC400
AccurateRip v1 signature : 5FEE5EBC
AccurateRip v2 signature : F727A047
->Track not present in AccurateRip database.
Statistics
Read error : 0
Jitter error (maybe fixed) : 0
Retry sector count : 0
Damaged sector count : 0
Track 04
Filename : /Users/kewagi/Music/Rips/David Helbock's RandomпјЏControl - Think of Two (2014) [FLAC]/04 Raise Four.flac
Track gain : -2.81 dB
Peak : 0.966888
CRC32 hash (test run) : 3F3FE03E
CRC32 hash : 3F3FE03E
CRC32 hash (skip zero) : D812A6D8
AccurateRip v1 signature : B8A68B29
AccurateRip v2 signature : 4ACB3295
->Track not present in AccurateRip database.
Statistics
Read error : 0
Jitter error (maybe fixed) : 0
Retry sector count : 0
Damaged sector count : 0
Track 05
Filename : /Users/kewagi/Music/Rips/David Helbock's RandomпјЏControl - Think of Two (2014) [FLAC]/05 MГєsica das Nuvens e do ChГЈo.flac
Pre-gap length : 00:01:37
Track gain : -3.05 dB
Peak : 0.966858
CRC32 hash (test run) : 4915ABC3
CRC32 hash : 4915ABC3
CRC32 hash (skip zero) : DE9C27CD
AccurateRip v1 signature : 0971E3E5
AccurateRip v2 signature : 1D25E7C2
->Track not present in AccurateRip database.
Statistics
Read error : 0
Jitter error (maybe fixed) : 0
Retry sector count : 0
Damaged sector count : 0
Track 06
Filename : /Users/kewagi/Music/Rips/David Helbock's RandomпјЏControl - Think of Two (2014) [FLAC]/06 Trinkle Tinkle.flac
Pre-gap length : 00:01:37
Track gain : -1.80 dB
Peak : 0.966888
CRC32 hash (test run) : 70F10CCF
CRC32 hash : 70F10CCF
CRC32 hash (skip zero) : E1E9154A
AccurateRip v1 signature : AC6A3CD2
AccurateRip v2 signature : 0CA0A231
->Track not present in AccurateRip database.
Statistics
Read error : 0
Jitter error (maybe fixed) : 0
Retry sector count : 0
Damaged sector count : 0
Track 07
Filename : /Users/kewagi/Music/Rips/David Helbock's RandomпјЏControl - Think of Two (2014) [FLAC]/07 Tupizando.flac
Pre-gap length : 00:02:00
Track gain : -4.09 dB
Peak : 0.966888
CRC32 hash (test run) : 2794A121
CRC32 hash : 2794A121
CRC32 hash (skip zero) : 7F1E762B
AccurateRip v1 signature : CDA90528
AccurateRip v2 signature : 0DAAB717
->Track not present in AccurateRip database.
Statistics
Read error : 0
Jitter error (maybe fixed) : 0
Retry sector count : 0
Damaged sector count : 0
Track 08
Filename : /Users/kewagi/Music/Rips/David Helbock's RandomпјЏControl - Think of Two (2014) [FLAC]/08 Pannonica.flac
Pre-gap length : 00:03:00
Track gain : -1.77 dB
Peak : 0.966400
CRC32 hash (test run) : 83CE0D0D
CRC32 hash : 83CE0D0D
CRC32 hash (skip zero) : A9D6EDB4
AccurateRip v1 signature : 4A6382CD
AccurateRip v2 signature : AD2612B6
->Track not present in AccurateRip database.
Statistics
Read error : 0
Jitter error (maybe fixed) : 0
Retry sector count : 0
Damaged sector count : 0
Track 09
Filename : /Users/kewagi/Music/Rips/David Helbock's RandomпјЏControl - Think of Two (2014) [FLAC]/09 Palhinha do Hermeto e da Aline.flac
Pre-gap length : 00:03:37
Track gain : -3.31 dB
Peak : 0.965454
CRC32 hash (test run) : AEE6F32F
CRC32 hash : AEE6F32F
CRC32 hash (skip zero) : CC3A020A
AccurateRip v1 signature : 6124E8E7
AccurateRip v2 signature : 14B39925
->Track not present in AccurateRip database.
Statistics
Read error : 0
Jitter error (maybe fixed) : 0
Retry sector count : 0
Damaged sector count : 0
Track 10
Filename : /Users/kewagi/Music/Rips/David Helbock's RandomпјЏControl - Think of Two (2014) [FLAC]/10 Para Hermeto.flac
Track gain : -3.92 dB
Peak : 0.966858
CRC32 hash (test run) : 2F75C51C
CRC32 hash : 2F75C51C
CRC32 hash (skip zero) : 9916B735
AccurateRip v1 signature : 1C0B9AEC
AccurateRip v2 signature : F9F8BFC3
->Track not present in AccurateRip database.
Statistics
Read error : 0
Jitter error (maybe fixed) : 0
Retry sector count : 0
Damaged sector count : 0
Track 11
Filename : /Users/kewagi/Music/Rips/David Helbock's RandomпјЏControl - Think of Two (2014) [FLAC]/11 Floresta.flac
Pre-gap length : 00:01:37
Track gain : -0.62 dB
Peak : 0.855469
CRC32 hash (test run) : B7A28C5C
CRC32 hash : B7A28C5C
CRC32 hash (skip zero) : 6982C2A1
AccurateRip v1 signature : DADE692D
AccurateRip v2 signature : 491916ED
->Track not present in AccurateRip database.
Statistics
Read error : 0
Jitter error (maybe fixed) : 0
Retry sector count : 0
Damaged sector count : 0
Track 12
Filename : /Users/kewagi/Music/Rips/David Helbock's RandomпјЏControl - Think of Two (2014) [FLAC]/12 Think of One.flac
Pre-gap length : 00:02:37
Track gain : -3.59 dB
Peak : 0.966858
CRC32 hash (test run) : 87C3ED3F
CRC32 hash : 87C3ED3F
CRC32 hash (skip zero) : 79E1209C
AccurateRip v1 signature : 5A1B5680
AccurateRip v2 signature : 81CC1379
->Track not present in AccurateRip database.
Statistics
Read error : 0
Jitter error (maybe fixed) : 0
Retry sector count : 0
Damaged sector count : 0
No errors occurred
End of status report
 
Содержание индексной карты (.CUE)
TITLE "Think of Two"
PERFORMER "David Helbock's Random/Control"
CATALOG 7053044599286
REM GENRE "Jazz"
REM DATE "2014"
REM DISCNUMBER 1
REM TOTALDISCS 1
REM DISCID 9C12440C
REM REPLAYGAIN_ALBUM_GAIN -2.98 dB
REM REPLAYGAIN_ALBUM_PEAK 0.966888
FILE "01 Voa, Ilza.flac" WAVE
TRACK 01 AUDIO
TITLE "Voa, Ilza"
ISRC DEE131419201
REM REPLAYGAIN_TRACK_GAIN -3.30 dB
REM REPLAYGAIN_TRACK_PEAK 0.966827
INDEX 01 00:00:00
TRACK 02 AUDIO
TITLE "'Round Midnight"
ISRC DEE131419202
REM REPLAYGAIN_TRACK_GAIN 0.13 dB
REM REPLAYGAIN_TRACK_PEAK 0.790497
INDEX 00 05:17:10
FILE "02 'Round Midnight.flac" WAVE
INDEX 01 00:00:00
TRACK 03 AUDIO
TITLE "Nas Quebradas"
ISRC DEE131419203
REM REPLAYGAIN_TRACK_GAIN -2.17 dB
REM REPLAYGAIN_TRACK_PEAK 0.966858
INDEX 00 06:58:47
FILE "03 Nas Quebradas.flac" WAVE
INDEX 01 00:00:00
FILE "04 Raise Four.flac" WAVE
TRACK 04 AUDIO
TITLE "Raise Four"
ISRC DEE131419204
REM REPLAYGAIN_TRACK_GAIN -2.81 dB
REM REPLAYGAIN_TRACK_PEAK 0.966888
INDEX 01 00:00:00
TRACK 05 AUDIO
TITLE "Musica das Nuvens e do Chao"
ISRC DEE131419205
REM REPLAYGAIN_TRACK_GAIN -3.05 dB
REM REPLAYGAIN_TRACK_PEAK 0.966858
INDEX 00 06:17:38
FILE "05 Musica das Nuvens e do Chao.flac" WAVE
INDEX 01 00:00:00
TRACK 06 AUDIO
TITLE "Trinkle Tinkle"
ISRC DEE131419206
REM REPLAYGAIN_TRACK_GAIN -1.80 dB
REM REPLAYGAIN_TRACK_PEAK 0.966888
INDEX 00 08:16:10
FILE "06 Trinkle Tinkle.flac" WAVE
INDEX 01 00:00:00
TRACK 07 AUDIO
TITLE "Tupizando"
ISRC DEE131419207
REM REPLAYGAIN_TRACK_GAIN -4.09 dB
REM REPLAYGAIN_TRACK_PEAK 0.966888
INDEX 00 04:17:47
FILE "07 Tupizando.flac" WAVE
INDEX 01 00:00:00
TRACK 08 AUDIO
TITLE "Pannonica"
ISRC DEE131419208
REM REPLAYGAIN_TRACK_GAIN -1.77 dB
REM REPLAYGAIN_TRACK_PEAK 0.966400
INDEX 00 07:10:47
FILE "08 Pannonica.flac" WAVE
INDEX 01 00:00:00
TRACK 09 AUDIO
TITLE "Palhinha do Hermeto e da Aline"
ISRC DEE131419209
REM REPLAYGAIN_TRACK_GAIN -3.31 dB
REM REPLAYGAIN_TRACK_PEAK 0.965454
INDEX 00 07:06:10
FILE "09 Palhinha do Hermeto e da Aline.flac" WAVE
INDEX 01 00:00:00
FILE "10 Para Hermeto.flac" WAVE
TRACK 10 AUDIO
TITLE "Para Hermeto"
ISRC DEE131419210
REM REPLAYGAIN_TRACK_GAIN -3.92 dB
REM REPLAYGAIN_TRACK_PEAK 0.966858
INDEX 01 00:00:00
TRACK 11 AUDIO
TITLE "Floresta"
ISRC DEE131419211
REM REPLAYGAIN_TRACK_GAIN -0.62 dB
REM REPLAYGAIN_TRACK_PEAK 0.855469
INDEX 00 06:17:57
FILE "11 Floresta.flac" WAVE
INDEX 01 00:00:00
TRACK 12 AUDIO
TITLE "Think of One"
ISRC DEE131419212
REM REPLAYGAIN_TRACK_GAIN -3.59 dB
REM REPLAYGAIN_TRACK_PEAK 0.966858
INDEX 00 07:08:10
FILE "12 Think of One.flac" WAVE
INDEX 01 00:00:00
 
Review by Glenn Astarita
Inferring that his Germany-based trio is a multitasking machine would be an understatement. With a fleet of instruments at their disposal, the compositions are largely sinuous, vastly complex, and highly coordinated. The musicians toggle between instruments to alter the pitch, accent the rhythms or whirl through complex unison choruses while adding wit and whimsy into the grand schema. Pianist David Helbock provides one composition, yet the program is fabricated around works by Thelonious Monk and legendary Brazilian composer Hermeto Pascoal.
The trio enacts Pascoal's "Musica das Nuvens e do Chao," like a mini-suite amid shifting reinventions of the principal melody. They kick it off with a surreal approach and dissect the familiar theme into chunks, then open it up with conventional phrasings via soft horns and Helbock's linear block chord progressions. Here, Johannes Bar enlists the bass element with his baritone horn as Andreas Broger's blithe flute lines over the top spawn the customarily cheerful aura of Brazilian music. But the musicians periodically toggle between instruments to generate subtle hues and textures. In a loose sense, they impart a sleight of hand mystique akin to a magician, where semblances of a larger ensemble come to fruition. The group also varies the pulse throughout, as Helbock's lush piano solo ends with a dark and somewhat dour chord. Hence, a rather astonishing trio that is purportedly a dazzling live act.
Track Listing: Track #1; Track #2; Track #3.
Personnel: David Helbock: piano, inside-piano, toy-piano, melodica, bass drum , clave, percussion, toys, electronics; Johannes Bar: trumpet, flugelhorn, piccolo-trumpet, bass-trumpet, baritone horn, tuba, helicon, sousaphone, alphorn, didgeridoo, beatbox, percussion, electronics; Andreas Broger: tenor saxophone, soprano saxophone, clarinet, bass clarinet, flute, slide-trumpet, bass drum, percussion, electronics.
AllAboutJazz http://www.allaboutjazz.com/php/article.php?id=46319#.UwcI-PldXpA
По всем вопросам пишите личное сообщение пользователю M0p94ok.
23:43
228
Нет комментариев. Ваш будет первым!