Вы используете незарегистрированную версию компонента "Вкладки"!

Поиск

(Avant-Garde Jazz, Modern Composition) [CD] Brad Dutz Quartet - Peripheral Hearing - 2013, FLAC (tracks+.cue), lossless

(Avant-Garde Jazz, Modern Composition) [CD] Brad Dutz Quartet - Peripheral Hearing - 2013, FLAC (tracks+.cue), lossless
Треклист:
Brad Dutz Quartet / Peripheral Hearing
Жанр: Avant-Garde Jazz, Modern Composition
Носитель: CD
Страна-производитель диска: New Zealand
Год издания: 2013
Издатель (лейбл): Rattle Records
Номер по каталогу: RAT-D044
Страна: US
Аудиокодек: FLAC (*.flac)
Тип рипа: tracks+.cue
Битрейт аудио: lossless
Продолжительность: 68:25
Источник (релизер): свой фирменный диск
Наличие сканов в содержимом раздачи: pdf-буклет
Треклист:
1. Flow Of Turnip Juice 6:48
2. Group Chatter 2:16
3. Journey To Espresso 77 5:26
4. Unit Speaks 3:15
5. Sneaky Products Rebel 4:11
6. Ensemble Decides 2:13
7. Postponed Till Never 5:31
8. Quartet Negotiates 3:01
9. Blue Tork Predator 4:09
10. Quintet Communication 3:08
11. Where Is The Spleen? 6:29
12. Birds Talk 5:22
13. Peripheral Hearing 5:00
14. Combo Discussion 3:01
15. Nefarious Mission 5:28
16. Final Conversation 2:23
 
Лог создания рипа
Exact Audio Copy V1.0 beta 3 from 29. August 2011
EAC extraction logfile from 31. January 2014, 21:23
Brad Dutz Quartet / Peripheral Hearing
Used drive : PIONEER DVD-RW DVR-115D Adapter: 0 ID: 0
Read mode : Secure
Utilize accurate stream : Yes
Defeat audio cache : Yes
Make use of C2 pointers : No
Read offset correction : 48
Overread into Lead-In and Lead-Out : No
Fill up missing offset samples with silence : Yes
Delete leading and trailing silent blocks : No
Null samples used in CRC calculations : Yes
Used interface : Installed external ASPI interface
Gap handling : Appended to previous track
Used output format : User Defined Encoder
Selected bitrate : 896 kBit/s
Quality : High
Add ID3 tag : No
Command line compressor : C:\Program Files\Exact Audio Copy\FLAC\FLAC.EXE
Additional command line options : -6 -V -T "ARTIST=%artist%" -T "TITLE=%title%" -T "ALBUM=%albumtitle%" -T "DATE=%year%" -T "TRACKNUMBER=%tracknr%" -T "GENRE=%genre%" -T "COMMENT=%comment%" -T "BAND=%albuminterpret%" -T "COMPOSER=%composer%" %haslyrics%--tag-from-file=LYRICS="%lyricsfile%"%haslyrics% -T "DISCNUMBER=%cdnumber%" -T "TOTALDISCS=%totalcds%" -T "TOTALTRACKS=%numtracks%" %hascover%--picture="%coverfile%"%hascover% %source% -o %dest%
TOC of the extracted CD
Track | Start | Length | Start sector | End sector
---------------------------------------------------------
1 | 0:00.00 | 6:50.38 | 0 | 30787
2 | 6:50.38 | 2:18.35 | 30788 | 41172
3 | 9:08.73 | 5:28.50 | 41173 | 65822
4 | 14:37.48 | 3:18.02 | 65823 | 80674
5 | 17:55.50 | 4:14.10 | 80675 | 99734
6 | 22:09.60 | 2:16.14 | 99735 | 109948
7 | 24:25.74 | 5:33.42 | 109949 | 134965
8 | 29:59.41 | 3:03.74 | 134966 | 148764
9 | 33:03.40 | 4:12.38 | 148765 | 167702
10 | 37:16.03 | 3:10.45 | 167703 | 181997
11 | 40:26.48 | 6:32.08 | 181998 | 211405
12 | 46:58.56 | 5:25.13 | 211406 | 235793
13 | 52:23.69 | 5:02.68 | 235794 | 258511
14 | 57:26.62 | 3:04.01 | 258512 | 272312
15 | 60:30.63 | 5:31.14 | 272313 | 297151
16 | 66:02.02 | 2:23.26 | 297152 | 307902
Track 1
Filename D:\zzz\01 - The Flow Of Turnip Juice.wav
Pre-gap length 0:00:02.00
Peak level 96.6 %
Extraction speed 4.6 X
Track quality 100.0 %
Test CRC 28E6BF95
Copy CRC 28E6BF95
Track not present in AccurateRip database
Copy OK
Track 2
Filename D:\zzz\02 - Group Chatter.wav
Pre-gap length 0:00:03.00
Peak level 96.6 %
Extraction speed 3.7 X
Track quality 99.9 %
Test CRC 18CD7D51
Copy CRC 18CD7D51
Track not present in AccurateRip database
Copy OK
Track 3
Filename D:\zzz\03 - Journey To Expresso 77.wav
Pre-gap length 0:00:03.00
Peak level 97.1 %
Extraction speed 4.9 X
Track quality 99.9 %
Test CRC 638C561B
Copy CRC 638C561B
Track not present in AccurateRip database
Copy OK
Track 4
Filename D:\zzz\04 - Unit Speaks.wav
Pre-gap length 0:00:03.00
Peak level 69.9 %
Extraction speed 5.4 X
Track quality 100.0 %
Test CRC 7ADB2981
Copy CRC 7ADB2981
Track not present in AccurateRip database
Copy OK
Track 5
Filename D:\zzz\05 - Sneaky Products Rebel.wav
Pre-gap length 0:00:03.00
Peak level 96.6 %
Extraction speed 5.8 X
Track quality 100.0 %
Test CRC 06217DC6
Copy CRC 06217DC6
Track not present in AccurateRip database
Copy OK
Track 6
Filename D:\zzz\06 - Ensemble Decides.wav
Pre-gap length 0:00:03.00
Peak level 80.7 %
Extraction speed 5.4 X
Track quality 100.0 %
Test CRC 8D77F364
Copy CRC 8D77F364
Track not present in AccurateRip database
Copy OK
Track 7
Filename D:\zzz\07 - Postponed Till Never.wav
Pre-gap length 0:00:03.00
Peak level 89.4 %
Extraction speed 6.5 X
Track quality 100.0 %
Test CRC 6333EF06
Copy CRC 6333EF06
Track not present in AccurateRip database
Copy OK
Track 8
Filename D:\zzz\08 - Quartet Negotiates.wav
Pre-gap length 0:00:03.00
Peak level 96.6 %
Extraction speed 5.4 X
Track quality 99.9 %
Test CRC 012214C3
Copy CRC 012214C3
Track not present in AccurateRip database
Copy OK
Track 9
Filename D:\zzz\09 - Blue Tork Predator.wav
Pre-gap length 0:00:03.00
Peak level 96.6 %
Extraction speed 6.8 X
Track quality 100.0 %
Test CRC 8BDAF4AF
Copy CRC 8BDAF4AF
Track not present in AccurateRip database
Copy OK
Track 10
Filename D:\zzz\10 - Quintet Communication.wav
Pre-gap length 0:00:03.00
Peak level 72.0 %
Extraction speed 6.7 X
Track quality 100.0 %
Test CRC B5E6FD32
Copy CRC B5E6FD32
Track not present in AccurateRip database
Copy OK
Track 11
Filename D:\zzz\11 - Where Is The Spleen.wav
Pre-gap length 0:00:03.00
Peak level 96.6 %
Extraction speed 7.1 X
Track quality 99.9 %
Test CRC B7BDF559
Copy CRC B7BDF559
Track not present in AccurateRip database
Copy OK
Track 12
Filename D:\zzz\12 - Birds Talk.wav
Pre-gap length 0:00:03.00
Peak level 96.6 %
Extraction speed 7.9 X
Track quality 100.0 %
Test CRC 55CB80A6
Copy CRC 55CB80A6
Track not present in AccurateRip database
Copy OK
Track 13
Filename D:\zzz\13 - Peripheral Hearing.wav
Pre-gap length 0:00:03.00
Peak level 96.7 %
Extraction speed 8.0 X
Track quality 100.0 %
Test CRC 0B3DC2C5
Copy CRC 0B3DC2C5
Track not present in AccurateRip database
Copy OK
Track 14
Filename D:\zzz\14 - Combo Discussion.wav
Pre-gap length 0:00:03.00
Peak level 96.6 %
Extraction speed 7.7 X
Track quality 100.0 %
Test CRC A129CAFA
Copy CRC A129CAFA
Track not present in AccurateRip database
Copy OK
Track 15
Filename D:\zzz\15 - Nefarious Mission.wav
Pre-gap length 0:00:03.00
Peak level 100.0 %
Extraction speed 8.6 X
Track quality 100.0 %
Test CRC 890106C0
Copy CRC 890106C0
Track not present in AccurateRip database
Copy OK
Track 16
Filename D:\zzz\16 - Final Conversation.wav
Pre-gap length 0:00:03.00
Peak level 74.4 %
Extraction speed 7.7 X
Track quality 100.0 %
Test CRC 66736FED
Copy CRC 66736FED
Track not present in AccurateRip database
Copy OK
None of the tracks are present in the AccurateRip database
No errors occurred
End of status report
==== Log checksum 3F597F4F528D2A5D6449FE000F4082EFA1F28FC7910897DEC6AAC8D69F48058A ====
 
Содержание индексной карты (.CUE)
REM GENRE "Chamber Music"
REM DATE 2013
REM DISCID E4100910
REM COMMENT "ExactAudioCopy v1.0b3"
PERFORMER "Brad Dutz Quartet"
TITLE "Peripheral Hearing"
FILE "01 - The Flow Of Turnip Juice.wav" WAVE
TRACK 01 AUDIO
TITLE "The Flow Of Turnip Juice"
PERFORMER "Brad Dutz Quartet"
INDEX 01 00:00:00
TRACK 02 AUDIO
TITLE "Group Chatter"
PERFORMER "Brad Dutz Quartet"
INDEX 00 06:47:38
FILE "02 - Group Chatter.wav" WAVE
INDEX 01 00:00:00
TRACK 03 AUDIO
TITLE "Journey To Expresso 77"
PERFORMER "Brad Dutz Quartet"
INDEX 00 02:15:35
FILE "03 - Journey To Expresso 77.wav" WAVE
INDEX 01 00:00:00
TRACK 04 AUDIO
TITLE "Unit Speaks"
PERFORMER "Brad Dutz Quartet"
INDEX 00 05:25:50
FILE "04 - Unit Speaks.wav" WAVE
INDEX 01 00:00:00
TRACK 05 AUDIO
TITLE "Sneaky Products Rebel"
PERFORMER "Brad Dutz Quartet"
INDEX 00 03:15:02
FILE "05 - Sneaky Products Rebel.wav" WAVE
INDEX 01 00:00:00
TRACK 06 AUDIO
TITLE "Ensemble Decides"
PERFORMER "Brad Dutz Quartet"
INDEX 00 04:11:10
FILE "06 - Ensemble Decides.wav" WAVE
INDEX 01 00:00:00
TRACK 07 AUDIO
TITLE "Postponed Till Never"
PERFORMER "Brad Dutz Quartet"
INDEX 00 02:13:14
FILE "07 - Postponed Till Never.wav" WAVE
INDEX 01 00:00:00
TRACK 08 AUDIO
TITLE "Quartet Negotiates"
PERFORMER "Brad Dutz Quartet"
INDEX 00 05:30:42
FILE "08 - Quartet Negotiates.wav" WAVE
INDEX 01 00:00:00
TRACK 09 AUDIO
TITLE "Blue Tork Predator"
PERFORMER "Brad Dutz Quartet"
INDEX 00 03:00:74
FILE "09 - Blue Tork Predator.wav" WAVE
INDEX 01 00:00:00
TRACK 10 AUDIO
TITLE "Quintet Communication"
PERFORMER "Brad Dutz Quartet"
INDEX 00 04:09:38
FILE "10 - Quintet Communication.wav" WAVE
INDEX 01 00:00:00
TRACK 11 AUDIO
TITLE "Where Is The Spleen?"
PERFORMER "Brad Dutz Quartet"
INDEX 00 03:07:45
FILE "11 - Where Is The Spleen.wav" WAVE
INDEX 01 00:00:00
TRACK 12 AUDIO
TITLE "Birds Talk"
PERFORMER "Brad Dutz Quartet"
INDEX 00 06:29:08
FILE "12 - Birds Talk.wav" WAVE
INDEX 01 00:00:00
TRACK 13 AUDIO
TITLE "Peripheral Hearing"
PERFORMER "Brad Dutz Quartet"
INDEX 00 05:22:13
FILE "13 - Peripheral Hearing.wav" WAVE
INDEX 01 00:00:00
TRACK 14 AUDIO
TITLE "Combo Discussion"
PERFORMER "Brad Dutz Quartet"
INDEX 00 04:59:68
FILE "14 - Combo Discussion.wav" WAVE
INDEX 01 00:00:00
TRACK 15 AUDIO
TITLE "Nefarious Mission"
PERFORMER "Brad Dutz Quartet"
INDEX 00 03:01:01
FILE "15 - Nefarious Mission.wav" WAVE
INDEX 01 00:00:00
TRACK 16 AUDIO
TITLE "Final Conversation"
PERFORMER "Brad Dutz Quartet"
INDEX 00 05:28:14
FILE "16 - Final Conversation.wav" WAVE
INDEX 01 00:00:00
 
Лог проверки качества
d:\>d:\aucdtect -d/-m0 d:\zzz\*.wav
auCDtect: CD records authenticity detector, version 0.8.2
Copyright (c) 2004 Oleg Berngardt. All rights reserved.
Copyright (c) 2004 Alexander Djourik. All rights reserved.
------------------------------------------------------------
Processing file: [01. The Flow Of Turnip Juice.wav]
------------------------------------------------------------
This track looks like CDDA with probability 99%
------------------------------------------------------------
Processing file: [02. Group Chatter.wav]
------------------------------------------------------------
This track looks like CDDA with probability 100%
------------------------------------------------------------
Processing file: [03. Journey To Expresso 77.wav]
------------------------------------------------------------
This track looks like CDDA with probability 100%
------------------------------------------------------------
Processing file: [04. Unit Speaks.wav]
------------------------------------------------------------
This track looks like CDDA with probability 100%
------------------------------------------------------------
Processing file: [05. Sneaky Products Rebel.wav]
------------------------------------------------------------
This track looks like CDDA with probability 100%
------------------------------------------------------------
Processing file: [06. Ensemble Decides.wav]
------------------------------------------------------------
This track looks like CDDA with probability 100%
------------------------------------------------------------
Processing file: [07. Postponed Till Never.wav]
------------------------------------------------------------
This track looks like CDDA with probability 100%
------------------------------------------------------------
Processing file: [08. Quartet Negotiates.wav]
------------------------------------------------------------
This track looks like CDDA with probability 100%
------------------------------------------------------------
Processing file: [09. Blue Tork Predator.wav]
------------------------------------------------------------
This track looks like CDDA with probability 100%
------------------------------------------------------------
Processing file: [10. Quintet Communication.wav]
------------------------------------------------------------
This track looks like CDDA with probability 100%
------------------------------------------------------------
Processing file: [11. Where Is The Spleen.wav]
------------------------------------------------------------
This track looks like CDDA with probability 100%
------------------------------------------------------------
Processing file: [12. Birds Talk.wav]
------------------------------------------------------------
This track looks like CDDA with probability 100%
------------------------------------------------------------
Processing file: [13. Peripheral Hearing.wav]
------------------------------------------------------------
This track looks like CDDA with probability 100%
------------------------------------------------------------
Processing file: [14. Combo Discussion.wav]
------------------------------------------------------------
This track looks like CDDA with probability 99%
------------------------------------------------------------
Processing file: [15. Nefarious Mission.wav]
------------------------------------------------------------
This track looks like CDDA with probability 100%
------------------------------------------------------------
Processing file: [16. Final Conversation.wav]
------------------------------------------------------------
This track looks like CDDA with probability 100%
------------------------------------------------------------
Final Conclusion:
------------------------------------------------------------
These tracks looks like CDDA with probability 100%
Доп. информация:
 
Album Info
Tracks 1,3,5,7,9,11,13 & 15 composed by Brad Dutz
Tracks 2,4,6,8,10,12,14 & 16 compositions improvised by the ensemble
Produced by Brad Dutz & Chris Votek
Recorded by Chris Votek, January, May & June 2013
Mixed and mastered by Wayne Peet at Newzone Audio, August 2013
Original artwork by Kaoru Mansour
Design by UnkleFranc
Photography by Jay Matsueda
 
Состав
Brad Dutz: mallets, hand percussion
Paul Sherman: oboe, english horn
Chris Votek: cello
Jim Sullivan: bass clarinet (1,5,8,9,12,14,16)
Brian Walsh: bass clarinet (2,3,4,6,7,10,11,13,15)
Special guest: Jasper Dutz: soprano sax, bass clarinet (1,2,4,6,10,15)
Any questions -> support@pro-jazz.com. По всем вопросам пишите -> support@pro-jazz.com
23:44
208
Нет комментариев. Ваш будет первым!