Вы используете незарегистрированную версию компонента "Вкладки"!

Поиск

(Free Improvisation) [CD] Charity Chan, Peter Evans, Tom Blancarte, Weasel Walter - Cryptocrystalline - 2013, FLAC (tracks+.cue), lossless

(Free Improvisation) [CD] Charity Chan, Peter Evans, Tom Blancarte, Weasel Walter - Cryptocrystalline - 2013, FLAC (tracks+.cue), lossless
Треклист:
Charity Chan, Peter Evans, Tom Blancarte, Weasel Walter / Cryptocrystalline
Жанр: Free Improvisation
Носитель: CD
Страна-производитель диска: US
Год издания: 2013
Издатель (лейбл): ugEXPLODE
Номер по каталогу: ug64
Аудиокодек: FLAC (*.flac)
Тип рипа: tracks+.cue
Битрейт аудио: lossless
Продолжительность: 72:25
Источник (релизер): whatcd (Bruitiste)
Наличие сканов в содержимом раздачи: нет
Треклист:
1. Undetectable (29:11)
2. Hidden Language (12:45)
3. More Than Met The Eye (30:28)
 
Лог создания рипа
Exact Audio Copy V1.0 beta 3 from 29. August 2011
EAC extraction logfile from 20. January 2014, 10:38
Charity Chan, Peter Evans, Tom Blancarte, Weasel Walter / Cryptocrystalline
Used drive : LITE-ON DVD SOHD-16P9S Adapter: 0 ID: 0
Read mode : Secure
Utilize accurate stream : Yes
Defeat audio cache : Yes
Make use of C2 pointers : No
Read offset correction : 6
Overread into Lead-In and Lead-Out : No
Fill up missing offset samples with silence : Yes
Delete leading and trailing silent blocks : No
Null samples used in CRC calculations : Yes
Used interface : Native Win32 interface for Win NT & 2000
Gap handling : Appended to previous track
Used output format : User Defined Encoder
Selected bitrate : 1024 kBit/s
Quality : High
Add ID3 tag : No
Command line compressor : C:\EAC\Exact Audio Copy\FLAC\flac.exe
Additional command line options : -8 -V -T "ARTIST=%artist%" -T "TITLE=%title%" -T "ALBUM=%albumtitle%" -T "DATE=%year%" -T "TRACKNUMBER=%tracknr%" -T "GENRE=%genre%" -T "PERFORMER=%albuminterpret%" -T "COMPOSER=%composer%" %haslyrics%--tag-from-file=LYRICS="%lyricsfile%"%haslyrics% -T "ALBUMARTIST=%albumartist%" -T "DISCNUMBER=%cdnumber%" -T "TOTALDISCS=%totalcds%" -T "TOTALTRACKS=%numtracks%" -T "COMMENT=%comment%" %source% -o %dest%
TOC of the extracted CD
Track | Start | Length | Start sector | End sector
---------------------------------------------------------
1 | 0:00.00 | 29:11.26 | 0 | 131350
2 | 29:11.26 | 12:45.48 | 131351 | 188773
3 | 41:56.74 | 30:28.19 | 188774 | 325892
Track 1
Filename C:\EAC-rips\Chan_Evans_Blancarte_Walter - Cryptocrystalline\01 - Undetectable.wav
Pre-gap length 0:00:02.00
Peak level 94.4 %
Extraction speed 2.7 X
Track quality 100.0 %
Test CRC E9C0C6FF
Copy CRC E9C0C6FF
Track not present in AccurateRip database
Copy OK
Track 2
Filename C:\EAC-rips\Chan_Evans_Blancarte_Walter - Cryptocrystalline\02 - Hidden Language.wav
Pre-gap length 0:00:06.20
Peak level 94.4 %
Extraction speed 3.5 X
Track quality 100.0 %
Test CRC 1572CCE2
Copy CRC 1572CCE2
Track not present in AccurateRip database
Copy OK
Track 3
Filename C:\EAC-rips\Chan_Evans_Blancarte_Walter - Cryptocrystalline\03 - More Than Met The Eye.wav
Pre-gap length 0:00:05.56
Peak level 94.4 %
Extraction speed 4.2 X
Track quality 100.0 %
Test CRC 1ABF5521
Copy CRC 1ABF5521
Track not present in AccurateRip database
Copy OK
None of the tracks are present in the AccurateRip database
No errors occurred
End of status report
---- CUETools DB Plugin V2.1.3
[CTDB TOCID: Q5FouRlLnjGU0A1RnFYH4jGpd.E-] disk not present in database, Submit result: Q5FouRlLnjGU0A1RnFYH4jGpd.E- has been uploaded
==== Log checksum 71AAC1B0A9EE67216FA61036996BA94DE9BFBFB54ED981331687CD7567787327 ====
 
Содержание индексной карты (.CUE)
REM DISCID 2210F903
REM COMMENT "ExactAudioCopy v1.0b3"
PERFORMER "Charity Chan, Peter Evans, Tom Blancarte, Weasel Walter"
TITLE "Cryptocrystalline"
FILE "01 - Undetectable.wav" WAVE
TRACK 01 AUDIO
TITLE "Undetectable"
PERFORMER "Charity Chan, Peter Evans, Tom Blancarte, Weasel Walter"
INDEX 01 00:00:00
TRACK 02 AUDIO
TITLE "Hidden Language"
PERFORMER "Charity Chan, Peter Evans, Tom Blancarte, Weasel Walter"
INDEX 00 29:05:11
FILE "02 - Hidden Language.wav" WAVE
INDEX 01 00:00:00
TRACK 03 AUDIO
TITLE "More Than Met The Eye"
PERFORMER "Charity Chan, Peter Evans, Tom Blancarte, Weasel Walter"
INDEX 00 12:40:06
FILE "03 - More Than Met The Eye.wav" WAVE
INDEX 01 00:00:00
Доп. информация: Recorded at Casa del Popolo, Montreal Quebec on January 23, 2013
 
Состав
Bass – Tom Blancarte
Drums – Weasel Walter
Piano – Charity Chan
Trumpet – Peter Evans
По всем вопросам пишите личное сообщение пользователю M0p94ok.
23:43
201
Нет комментариев. Ваш будет первым!