Вы используете незарегистрированную версию компонента "Вкладки"!

Поиск

(Avant-Garde Jazz, Free Improvisation) [CD] Cecil Taylor - Student Studies {1966} - 2003, FLAC (tracks+.cue), lossless

(Avant-Garde Jazz, Free Improvisation) [CD] Cecil Taylor - Student Studies {1966} - 2003, FLAC (tracks+.cue), lossless
Треклист:
♦ Cecil Taylor - Student Studies {1966} ♦
Жанр: Avant-Garde Jazz, Free Improvisation
Носитель: CD
Страна-производитель диска: Russia
Год издания: 2003
Аудиокодек: FLAC (*.flac)
Тип рипа: tracks+.cue
Битрейт аудио: lossless
Продолжительность: 00:58:46
Источник (релизер): Рип с диска.
Наличие сканов в содержимом раздачи: да
Треклист:
01. Sudent Studies part 1 [15:58]
02. Sudent Studies part 2 [10:58]
03. Amplitude [19:41]
04. Niggle Feuigle [12:07]
 
Лог создания рипа
Exact Audio Copy V1.0 beta 3 from 29. August 2011
EAC extraction logfile from 4. February 2014, 22:33
Cecil Taylor / Sudent Studies
Used drive : ATAPI iHAS124 D Adapter: 1 ID: 0
Read mode : Secure
Utilize accurate stream : Yes
Defeat audio cache : Yes
Make use of C2 pointers : No
Read offset correction : 6
Overread into Lead-In and Lead-Out : No
Fill up missing offset samples with silence : Yes
Delete leading and trailing silent blocks : No
Null samples used in CRC calculations : Yes
Used interface : Native Win32 interface for Win NT & 2000
Gap handling : Appended to previous track
Used output format : User Defined Encoder
Selected bitrate : 128 kBit/s
Quality : High
Add ID3 tag : No
Command line compressor : C:\Program Files (x86)\Exact Audio Copy\Flac\flac.exe
Additional command line options : -V -8 -T "Genre=%genre%" -T "Artist=%artist%" -T "Title=%title%" -T "Album=%albumtitle%" -T "Date=%year%" -T "Tracknumber=%tracknr%" -T "Comment=%comment%" %source%
TOC of the extracted CD
Track | Start | Length | Start sector | End sector
---------------------------------------------------------
1 | 0:00.00 | 15:58.59 | 0 | 71908
2 | 15:58.59 | 10:58.42 | 71909 | 121300
3 | 26:57.26 | 19:41.51 | 121301 | 209926
4 | 46:39.02 | 12:07.11 | 209927 | 264462
Track 1
Filename D:\1\01. Sudent Studies part 1.wav
Pre-gap length 0:00:02.00
Peak level 73.7 %
Extraction speed 6.4 X
Track quality 99.9 %
Test CRC 79D9D338
Copy CRC 79D9D338
Cannot be verified as accurate (confidence 1) [4748EC29], AccurateRip returned [63CCCBC9] (AR v2)
Copy OK
Track 2
Filename D:\1\02. Sudent Studies part 2.wav
Peak level 78.9 %
Extraction speed 8.3 X
Track quality 100.0 %
Test CRC 812336DC
Copy CRC 812336DC
Cannot be verified as accurate (confidence 1) [CDAC8706], AccurateRip returned [0C74289B] (AR v2)
Copy OK
Track 3
Filename D:\1\03. Amplitude.wav
Peak level 70.8 %
Extraction speed 10.1 X
Track quality 100.0 %
Test CRC BC93CDD1
Copy CRC BC93CDD1
Cannot be verified as accurate (confidence 1) [0B727937], AccurateRip returned [4C5776BF] (AR v2)
Copy OK
Track 4
Filename D:\1\04. Niggle Feuigle.wav
Peak level 79.6 %
Extraction speed 8.9 X
Track quality 99.9 %
Test CRC 8C32A414
Copy CRC 8C32A414
Cannot be verified as accurate (confidence 1) [2AD303E1], AccurateRip returned [41B60D8F] (AR v2)
Copy OK
No tracks could be verified as accurate
You may have a different pressing from the one(s) in the database
No errors occurred
End of status report
==== Log checksum 831EFE7B02A064384C0753F99ABF8C2117325FEB942E436CB998ECC1BF7C65DD ====
 
Содержание индексной карты (.CUE)
REM GENRE Jazz
REM DATE 1966
REM DISCID 2D0DC604
REM COMMENT "ExactAudioCopy v1.0b3"
PERFORMER "Cecil Taylor"
TITLE "Sudent Studies"
FILE "01. Sudent Studies part 1.wav" WAVE
TRACK 01 AUDIO
TITLE "Sudent Studies part 1"
PERFORMER "Cecil Taylor"
INDEX 01 00:00:00
FILE "02. Sudent Studies part 2.wav" WAVE
TRACK 02 AUDIO
TITLE "Sudent Studies part 2"
PERFORMER "Cecil Taylor"
INDEX 01 00:00:00
FILE "03. Amplitude.wav" WAVE
TRACK 03 AUDIO
TITLE "Amplitude"
PERFORMER "Cecil Taylor"
INDEX 01 00:00:00
FILE "04. Niggle Feuigle.wav" WAVE
TRACK 04 AUDIO
TITLE "Niggle Feuigle"
PERFORMER "Cecil Taylor"
INDEX 01 00:00:00
 
Состав
Cecil Taylor - piano
Jimmy Lyons - alto sax
Alan Silva - bass
Andrew Cyrille - drums
По всем вопросам пишите личное сообщение пользователю M0p94ok.
23:16
156
Нет комментариев. Ваш будет первым!