Вы используете незарегистрированную версию компонента "Вкладки"!

Поиск

(Avant-Garde Jazz, Creative, Free Improvisation) [CD] Nicole Mitchell's Ice Crystals - Aquarius - 2013, FLAC (tracks+.cue), lossless

(Avant-Garde Jazz, Creative, Free Improvisation) [CD] Nicole Mitchell's Ice Crystals - Aquarius - 2013, FLAC (tracks+.cue), lossless
Треклист:
Nicole Mitchell's Ice Crystals - Aquarius
Жанр: Avant-Garde Jazz, Creative, Free Improvisation
Носитель: CD
Страна-производитель диска: USA
Год издания: 2013
Издатель (лейбл): Delmark
Номер по каталогу: DE 5004
Страна: USA
Аудиокодек: FLAC (*.flac)
Тип рипа: tracks+.cue
Битрейт аудио: lossless
Продолжительность: 69:03
Источник (релизер): dtromp
Наличие сканов в содержимом раздачи: нет
Треклист:
01. Aqua Blue (04:07)
02. Today, Today (08:10)
03. Yearning (06:46)
04. Aquarius (08:05)
05. Above The Sky (06:51)
06. Diga, Diga (04:29)
07. Adaptability (08:41)
08. Expectation (08:03)
09. Sudnay Afternoon (09:41)
10. Fred Anderson (04:10)
 
Лог создания рипа
Exact Audio Copy V1.0 beta 3 from 29. August 2011
EAC extraction logfile from 28. January 2014, 7:10
Nicole Mitchell's Ice Crystals / Aquarius
Used drive : PLEXTOR DVDR PX-860A Adapter: 0 ID: 0
Read mode : Secure
Utilize accurate stream : Yes
Defeat audio cache : Yes
Make use of C2 pointers : No
Read offset correction : 96
Overread into Lead-In and Lead-Out : No
Fill up missing offset samples with silence : Yes
Delete leading and trailing silent blocks : No
Null samples used in CRC calculations : Yes
Used interface : Native Win32 interface for Win NT & 2000
Gap handling : Appended to previous track
Used output format : User Defined Encoder
Selected bitrate : 1024 kBit/s
Quality : High
Add ID3 tag : No
Command line compressor : C:\Program Files\Exact Audio Copy\Flac\flac.exe
Additional command line options : -8 -V -T "ARTIST=%artist%" -T "TITLE=%title%" -T "ALBUM=%albumtitle%" -T "DATE=%year%" -T "TRACKNUMBER=%tracknr%" -T "TOTALTRACKS=%numtracks%" -T "GENRE=%genre%" -T "ALBUMARTIST=%albumartist%" -T "ALBUM ARTIST=%albumartist%" -T "COMMENT=EAC Secure Mode, Test & Copy, AccurateRip, FLAC -8" %source%
TOC of the extracted CD
Track | Start | Length | Start sector | End sector
---------------------------------------------------------
1 | 0:00.00 | 4:07.13 | 0 | 18537
2 | 4:07.13 | 8:10.55 | 18538 | 55342
3 | 12:17.68 | 6:46.16 | 55343 | 85808
4 | 19:04.09 | 8:05.32 | 85809 | 122215
5 | 27:09.41 | 6:51.17 | 122216 | 153057
6 | 34:00.58 | 4:29.39 | 153058 | 173271
7 | 38:30.22 | 8:41.41 | 173272 | 212387
8 | 47:11.63 | 8:03.41 | 212388 | 248653
9 | 55:15.29 | 9:41.24 | 248654 | 292252
10 | 64:56.53 | 4:10.03 | 292253 | 311005
Track 1
Filename O:\DL\Nicole Mitchell's Ice Crystals - Aquarius (2013) [FLAC]\01 - Aqua Blue.wav
Pre-gap length 0:00:02.00
Peak level 98.8 %
Extraction speed 1.6 X
Track quality 100.0 %
Test CRC 35C9558A
Copy CRC 35C9558A
Track not present in AccurateRip database
Copy OK
Track 2
Filename O:\DL\Nicole Mitchell's Ice Crystals - Aquarius (2013) [FLAC]\02 - Today, Today.wav
Pre-gap length 0:00:03.00
Peak level 98.8 %
Extraction speed 2.0 X
Track quality 100.0 %
Test CRC E1C0F08A
Copy CRC E1C0F08A
Track not present in AccurateRip database
Copy OK
Track 3
Filename O:\DL\Nicole Mitchell's Ice Crystals - Aquarius (2013) [FLAC]\03 - Yearning.wav
Pre-gap length 0:00:03.00
Peak level 98.8 %
Extraction speed 2.0 X
Track quality 99.9 %
Test CRC 57987CEF
Copy CRC 57987CEF
Track not present in AccurateRip database
Copy OK
Track 4
Filename O:\DL\Nicole Mitchell's Ice Crystals - Aquarius (2013) [FLAC]\04 - Aquarius.wav
Pre-gap length 0:00:03.00
Peak level 98.8 %
Extraction speed 2.5 X
Track quality 100.0 %
Test CRC 549B62AD
Copy CRC 549B62AD
Track not present in AccurateRip database
Copy OK
Track 5
Filename O:\DL\Nicole Mitchell's Ice Crystals - Aquarius (2013) [FLAC]\05 - Above The Sky.wav
Pre-gap length 0:00:03.00
Peak level 98.8 %
Extraction speed 2.7 X
Track quality 100.0 %
Test CRC FC05C315
Copy CRC FC05C315
Track not present in AccurateRip database
Copy OK
Track 6
Filename O:\DL\Nicole Mitchell's Ice Crystals - Aquarius (2013) [FLAC]\06 - Diga, Diga.wav
Pre-gap length 0:00:03.00
Peak level 98.8 %
Extraction speed 2.6 X
Track quality 100.0 %
Test CRC 6A47408E
Copy CRC 6A47408E
Track not present in AccurateRip database
Copy OK
Track 7
Filename O:\DL\Nicole Mitchell's Ice Crystals - Aquarius (2013) [FLAC]\07 - Adaptability.wav
Pre-gap length 0:00:03.00
Peak level 98.8 %
Extraction speed 2.6 X
Track quality 99.9 %
Test CRC 3FAA75BE
Copy CRC 3FAA75BE
Track not present in AccurateRip database
Copy OK
Track 8
Filename O:\DL\Nicole Mitchell's Ice Crystals - Aquarius (2013) [FLAC]\08 - Expectation.wav
Pre-gap length 0:00:03.00
Peak level 98.8 %
Extraction speed 3.2 X
Track quality 100.0 %
Test CRC 9ACD3A3B
Copy CRC 9ACD3A3B
Track not present in AccurateRip database
Copy OK
Track 9
Filename O:\DL\Nicole Mitchell's Ice Crystals - Aquarius (2013) [FLAC]\09 - Sunday Afternoon.wav
Pre-gap length 0:00:03.00
Peak level 98.8 %
Extraction speed 3.2 X
Track quality 99.9 %
Test CRC 3F94FB74
Copy CRC 3F94FB74
Track not present in AccurateRip database
Copy OK
Track 10
Filename O:\DL\Nicole Mitchell's Ice Crystals - Aquarius (2013) [FLAC]\10 - Fred Anderson.wav
Pre-gap length 0:00:03.00
Peak level 98.8 %
Extraction speed 3.2 X
Track quality 100.0 %
Test CRC 7A25BDC9
Copy CRC 7A25BDC9
Track not present in AccurateRip database
Copy OK
None of the tracks are present in the AccurateRip database
No errors occurred
End of status report
---- CUETools DB Plugin V2.1.3
[CTDB TOCID: 09WL1ElTBQeaVfcSUPPnaEE2TOo-] disk not present in database, Submit result: database access error: The request was aborted: The request was canceled.
==== Log checksum B348738330B58337554CE499D5EB27E214BD9DF6F0D66491D27B515E0F32725F ====
 
Содержание индексной карты (.CUE)
REM GENRE Jazz
REM DATE 2013
REM DISCID 8510320A
REM COMMENT "ExactAudioCopy v1.0b3"
PERFORMER "Nicole Mitchell's Ice Crystals"
TITLE "Aquarius"
FILE "01 - Aqua Blue.wav" WAVE
TRACK 01 AUDIO
TITLE "Aqua Blue"
PERFORMER "Nicole Mitchell's Ice Crystals"
FLAGS DCP
INDEX 01 00:00:00
TRACK 02 AUDIO
TITLE "Today, Today"
PERFORMER "Nicole Mitchell's Ice Crystals"
FLAGS DCP
INDEX 00 04:04:13
FILE "02 - Today, Today.wav" WAVE
INDEX 01 00:00:00
TRACK 03 AUDIO
TITLE "Yearning"
PERFORMER "Nicole Mitchell's Ice Crystals"
FLAGS DCP
INDEX 00 08:07:55
FILE "03 - Yearning.wav" WAVE
INDEX 01 00:00:00
TRACK 04 AUDIO
TITLE "Aquarius"
PERFORMER "Nicole Mitchell's Ice Crystals"
FLAGS DCP
INDEX 00 06:43:16
FILE "04 - Aquarius.wav" WAVE
INDEX 01 00:00:00
TRACK 05 AUDIO
TITLE "Above The Sky"
PERFORMER "Nicole Mitchell's Ice Crystals"
FLAGS DCP
INDEX 00 08:02:32
FILE "05 - Above The Sky.wav" WAVE
INDEX 01 00:00:00
TRACK 06 AUDIO
TITLE "Diga, Diga"
PERFORMER "Nicole Mitchell's Ice Crystals"
FLAGS DCP
INDEX 00 06:48:17
FILE "06 - Diga, Diga.wav" WAVE
INDEX 01 00:00:00
TRACK 07 AUDIO
TITLE "Adaptability"
PERFORMER "Nicole Mitchell's Ice Crystals"
FLAGS DCP
INDEX 00 04:26:39
FILE "07 - Adaptability.wav" WAVE
INDEX 01 00:00:00
TRACK 08 AUDIO
TITLE "Expectation"
PERFORMER "Nicole Mitchell's Ice Crystals"
FLAGS DCP
INDEX 00 08:38:41
FILE "08 - Expectation.wav" WAVE
INDEX 01 00:00:00
TRACK 09 AUDIO
TITLE "Sunday Afternoon"
PERFORMER "Nicole Mitchell's Ice Crystals"
FLAGS DCP
INDEX 00 08:00:41
FILE "09 - Sunday Afternoon.wav" WAVE
INDEX 01 00:00:00
TRACK 10 AUDIO
TITLE "Fred Anderson"
PERFORMER "Nicole Mitchell's Ice Crystals"
FLAGS DCP
INDEX 00 09:38:24
FILE "10 - Fred Anderson.wav" WAVE
INDEX 01 00:00:00
 
Лог проверки качества
AUDIOCHECKER v2.0 beta (build 457) - by Dester - opdester@freemail.hu
~~~~~~~~~~~~~~~~~~~~~~~~~~~~~~~~~~
-=== DO NOT EDIT THIS FILE! ===-
Path: ...\Nicole Mitchell's Ice Crystals - Aquarius (2013) [FLAC]
01 -=- 01 - Aqua Blue.flac -=- CDDA (100%)
02 -=- 02 - Today, Today.flac -=- CDDA (100%)
03 -=- 03 - Yearning.flac -=- CDDA (100%)
04 -=- 04 - Aquarius.flac -=- CDDA (100%)
05 -=- 05 - Above The Sky.flac -=- CDDA (99%)
06 -=- 06 - Diga, Diga.flac -=- CDDA (100%)
07 -=- 07 - Adaptability.flac -=- CDDA (100%)
08 -=- 08 - Expectation.flac -=- CDDA (100%)
09 -=- 09 - Sunday Afternoon.flac -=- CDDA (100%)
10 -=- 10 - Fred Anderson.flac -=- CDDA (100%)
Summary 99,90% CDDA
74067524
 
Об альбоме (сборнике)
Nicole Mitchell's Ice Crystal project explores water and glass chemistry of flute and vibes, by combining the creative flutist with young luminary Jason Adasiewicz on vibraphone. Ice Crystal's sound reminds us of the legendary collaboration between flutist Eric Dolphy and vibraphonist Bobby Hutcherson, but with a Chicago twist. Expression of yet another color in Mitchell's kaleidoscope of approaches, Aquarius is blues-inflected serenity, playfully swinging to the ethereal. Mitchell may have migrated to California, but her Chicago story continues, as she teams up with veteran improvisers Joshua Abrams (bass), Frank Rosaly (drums) and Jason Adasiewicz to take free swing to the nth degree.
 
Состав
Nicole Mitchell - flute
Jason Adasiewicz - vibes
Joshua Abrams - bass
Frank Rosaly - drums
По всем вопросам пишите личное сообщение пользователю M0p94ok.
23:16
150
Нет комментариев. Ваш будет первым!