Вы используете незарегистрированную версию компонента "Вкладки"!

Поиск

(Free Jazz) [CD] Billy Bang, Shoji Hano - Four Seasons: East Meets West - 2009, FLAC (tracks+.cue), lossless

(Free Jazz) [CD] Billy Bang, Shoji Hano - Four Seasons: East Meets West - 2009, FLAC (tracks+.cue), lossless
Треклист:
Billy Bang, Shoji Hano / Four Seasons: East Meets West
Жанр: Free Jazz
Носитель: CD
Страна-производитель диска: Japan
Год издания: 2009
Издатель (лейбл): Heart Lord Studio
Номер по каталогу: HLSCD-0009
Аудиокодек: FLAC (*.flac)
Тип рипа: tracks+.cue
Битрейт аудио: lossless
Продолжительность: 50:49
Источник (релизер): gssmg7
Наличие сканов в содержимом раздачи: да
Треклист:
1. Spring (9:34)
2. Summer (12:22)
3. Autumn (7:06)
4. Winter (21:40)
 
Лог создания рипа
Exact Audio Copy V1.0 beta 2 from 29. April 2011
EAC extraction logfile from 4. February 2014, 20:26
Billy Bang, Shoji Hano / Four Seasons
Used drive : Optiarc DVD RW AD-5280S Adapter: 1 ID: 1
Read mode : Secure
Utilize accurate stream : Yes
Defeat audio cache : Yes
Make use of C2 pointers : No
Read offset correction : 48
Overread into Lead-In and Lead-Out : No
Fill up missing offset samples with silence : Yes
Delete leading and trailing silent blocks : No
Null samples used in CRC calculations : Yes
Used interface : Installed external ASPI interface
Gap handling : Appended to previous track
Used output format : User Defined Encoder
Selected bitrate : 128 kBit/s
Quality : High
Add ID3 tag : No
Command line compressor : C:\Program Files\FLAC\flac.exe
Additional command line options : -V -8 -T "Genre=%genre%" -T "Artist=%artist%" -T "Title=%title%" -T "Album=%albumtitle%" -T "Date=%year%" -T "Tracknumber=%tracknr%" -T "Comment=%comment%" %source%
TOC of the extracted CD
Track | Start | Length | Start sector | End sector
---------------------------------------------------------
1 | 0:00.00 | 9:34.42 | 0 | 43091
2 | 9:34.42 | 12:22.02 | 43092 | 98743
3 | 21:56.44 | 7:07.27 | 98744 | 130795
4 | 29:03.71 | 21:45.21 | 130796 | 228691
Track 1
Filename C:\Billy Bang, Shoji Hano (2009) - Four Seasons\01 - Spring.wav
Pre-gap length 0:00:02.00
Peak level 100.0 %
Extraction speed 5.3 X
Track quality 100.0 %
Test CRC 3B673931
Copy CRC 3B673931
Accurately ripped (confidence 2) [3085C0FE] (AR v1)
Copy OK
Track 2
Filename C:\Billy Bang, Shoji Hano (2009) - Four Seasons\02 - Summer.wav
Peak level 100.0 %
Extraction speed 6.3 X
Track quality 99.9 %
Test CRC F7E701F0
Copy CRC F7E701F0
Accurately ripped (confidence 2) [DB85EAE5] (AR v1)
Copy OK
Track 3
Filename C:\Billy Bang, Shoji Hano (2009) - Four Seasons\03 - Autumn.wav
Peak level 100.0 %
Extraction speed 7.2 X
Track quality 100.0 %
Test CRC 88FD0876
Copy CRC 88FD0876
Accurately ripped (confidence 2) [37362FB6] (AR v1)
Copy OK
Track 4
Filename C:\Billy Bang, Shoji Hano (2009) - Four Seasons\04 - Winter.wav
Peak level 100.0 %
Extraction speed 8.8 X
Track quality 100.0 %
Test CRC DB386056
Copy CRC DB386056
Accurately ripped (confidence 2) [68E98CC2] (AR v1)
Copy OK
All tracks accurately ripped
No errors occurred
End of status report
==== Log checksum 7064D6ECA9C2C5082A45B6CFFD3200232D059F2E2F1FDE7E609714DF01FC6C3C ====
 
Содержание индексной карты (.CUE)
REM GENRE Jazz
REM DATE 2009
REM DISCID 320BE904
REM COMMENT "ExactAudioCopy v1.0b2"
PERFORMER "Billy Bang, Shoji Hano"
TITLE "Four Seasons"
FILE "01 - Spring.wav" WAVE
TRACK 01 AUDIO
TITLE "Spring"
PERFORMER "Billy Bang, Shoji Hano"
INDEX 01 00:00:00
FILE "02 - Summer.wav" WAVE
TRACK 02 AUDIO
TITLE "Summer"
PERFORMER "Billy Bang, Shoji Hano"
INDEX 01 00:00:00
FILE "03 - Autumn.wav" WAVE
TRACK 03 AUDIO
TITLE "Autumn"
PERFORMER "Billy Bang, Shoji Hano"
INDEX 01 00:00:00
FILE "04 - Winter.wav" WAVE
TRACK 04 AUDIO
TITLE "Winter"
PERFORMER "Billy Bang, Shoji Hano"
INDEX 01 00:00:00
 
Доп. информация
Recorded at Heart Lord Studio, Hiroshima, October 2008
 
Об альбоме (сборнике)
Featuring Billy Bang on electric violin, Shoji Hano on drums with Kimie Sakaki on koto. Over the last few years the Heart Lord label has released a handful of fine discs from legendary Japanese drummer Shoji Hano including three duos with Peter Brotzmann, one solo drums effort and now this fine duo/trio with New York legend Billy Bang on violin along with their guest Kimie Sakaki on koto. This disc features four pieces, two shorter (under 10 minutes) and two longer ones. Each piece is named after one of the four seasons. Billy Bang loves to play with drummers and has already recorded William Hooker, Abbey Rader, Dennis Charles and Kahil El' Zabar. Billy and Shoji make ideal partners as they swirl and interweave their notes with creativity, passion and power. Shoji never overplays as he dances lightly around the drums. When koto player enters on the third track, he also works with the duo playing with exquisite grace which brings out the more lyrical side of Mr. Bang. Both string players pluck similar notes in a more melodic fashion and exchange ideas superbly. On the final long piece Billy and Shoji exchange ideas at a quick pace, casting a web of notes around one another in a most astonishing fashion, the flow of ideas in non-stop. Outstanding through and through! - bruce lee gallanter, downtownmusicgallery.com
 
Состав
Billy Bang - electric violin
Shoji Hano - drums
Kimie Sakaki - koto (track 3)
По всем вопросам пишите личное сообщение пользователю M0p94ok.
23:17
129
Нет комментариев. Ваш будет первым!