Вы используете незарегистрированную версию компонента "Вкладки"!

Поиск

(Avant-Garde Jazz / Free Improvisation) [CD] Billy Bang, William Parker - Medicine Buddha - 2014, rec. 2009, FLAC (tracks+.cue), lossless

(Avant-Garde Jazz / Free Improvisation) [CD] Billy Bang, William Parker - Medicine Buddha - 2014, rec. 2009, FLAC (tracks+.cue), lossless
Треклист:
Billy Bang / William Parker - Medicine Buddha
Жанр: Avant-Garde Jazz / Free Improvisation
Носитель: CD
Страна-производитель диска (релиза): Lithuania
Год издания: 2014
Год записи: 2009
Издатель (лейбл): NoBusiness Records
Номер по каталогу: NBCD 71
Аудиокодек: FLAC (*.flac)
Тип рипа: tracks+.cue
Битрейт аудио: lossless
Продолжительность: 00:52:36
Источник (релизер): what.cd / спасибо 6060842
Наличие сканов в содержимом раздачи: нет
Треклист:
1. Medicine Buddha (22:30)
2. Sky Song (06:15)
3. Bronx Aborigines (03:42)
4. Eternal Planet (Dedicated to Leroy Jenkins) (14:22)
5. Buddha's Joy (05:43)
All compositions by Billy Bang and William Parker,
except Eternal Planet and Buddha's Joy by William Parker
Доп. информация:
Musicians:
Billy Bang - violin, thumb piano
William Parker - bass, shakuhashi, dousn gouni
Recorded live at The Rubin Museum Of Art, New York, on the 8th May, 2009
© 2014, NoBusiness Records
Billy Bang / William Parker - Medicine Buddha nobusinessrecords.com
William Parker Official Site
William Parker from Wikipedia, the free encyclopedia
Billy Bang from Wikipedia, the free encyclopedia
 
... photo ...

 
Лог создания рипа
X Lossless Decoder version 20141129 (148.1)
XLD extraction logfile from 2015-02-09 23:18:24 +0300
Billy Bang, William Parker / Medicine Buddha
Used drive : HL-DT-ST DVDRW GX30N (revision RP09)
Media type : Pressed CD
Ripper mode : XLD Secure Ripper
Disable audio cache : OK for the drive with a cache less than 1375KiB
Make use of C2 pointers : NO
Read offset correction : 6
Max retry count : 10000
Gap status : Analyzed, Appended (except HTOA)
TOC of the extracted CD
Track | Start | Length | Start sector | End sector
---------------------------------------------------------
1 | 00:00:00 | 22:34:31 | 0 | 101580
2 | 22:34:31 | 06:18:60 | 101581 | 129990
3 | 28:53:16 | 03:45:53 | 129991 | 146918
4 | 32:38:69 | 14:25:07 | 146919 | 211800
5 | 47:04:01 | 05:44:22 | 211801 | 237622
AccurateRip Summary
Disc not found in AccurateRip DB.
All Tracks
Album gain : -3.89 dB
Peak : 1.000000
Statistics
Read error : 0
Jitter error (maybe fixed) : 0
Retry sector count : 0
Damaged sector count : 0
Track 01
Filename : /Users/Shared/Grabbed/Billy Bang, William Parker/2009 - Medicine Buddha/01 - Medicine Buddha.flac
Pre-gap length : 00:02:00
Track gain : -3.75 dB
Peak : 1.000000
CRC32 hash (test run) : 30CA9A42
CRC32 hash : 30CA9A42
CRC32 hash (skip zero) : 93C39579
AccurateRip v1 signature : 7BF49ACB
AccurateRip v2 signature : 6BA1D515
->Track not present in AccurateRip database.
Statistics
Read error : 0
Jitter error (maybe fixed) : 0
Retry sector count : 0
Damaged sector count : 0
Track 02
Filename : /Users/Shared/Grabbed/Billy Bang, William Parker/2009 - Medicine Buddha/02 - Sky Song.flac
Pre-gap length : 00:03:00
Track gain : -4.07 dB
Peak : 0.932373
CRC32 hash (test run) : 66EB2616
CRC32 hash : 66EB2616
CRC32 hash (skip zero) : 29B36FB2
AccurateRip v1 signature : BA3DF5A0
AccurateRip v2 signature : E3ACDBDE
->Track not present in AccurateRip database.
Statistics
Read error : 0
Jitter error (maybe fixed) : 0
Retry sector count : 0
Damaged sector count : 0
Track 03
Filename : /Users/Shared/Grabbed/Billy Bang, William Parker/2009 - Medicine Buddha/03 - Bronx Aborigines.flac
Pre-gap length : 00:03:00
Track gain : -1.21 dB
Peak : 0.932373
CRC32 hash (test run) : EA82B86F
CRC32 hash : EA82B86F
CRC32 hash (skip zero) : 7DF2C05F
AccurateRip v1 signature : 9A855FBC
AccurateRip v2 signature : A54B3825
->Track not present in AccurateRip database.
Statistics
Read error : 0
Jitter error (maybe fixed) : 0
Retry sector count : 0
Damaged sector count : 0
Track 04
Filename : /Users/Shared/Grabbed/Billy Bang, William Parker/2009 - Medicine Buddha/04 - Eternal Planet (Dedicated To Leroy Jenkins).flac
Pre-gap length : 00:03:00
Track gain : -3.76 dB
Peak : 0.932373
CRC32 hash (test run) : 7FE01E14
CRC32 hash : 7FE01E14
CRC32 hash (skip zero) : 259132DD
AccurateRip v1 signature : 1D4A04CF
AccurateRip v2 signature : C7D507FB
->Track not present in AccurateRip database.
Statistics
Read error : 0
Jitter error (maybe fixed) : 0
Retry sector count : 0
Damaged sector count : 0
Track 05
Filename : /Users/Shared/Grabbed/Billy Bang, William Parker/2009 - Medicine Buddha/05 - Buddha's Joy.flac
Pre-gap length : 00:03:00
Track gain : -4.69 dB
Peak : 0.932373
CRC32 hash (test run) : 9A49C9E5
CRC32 hash : 9A49C9E5
CRC32 hash (skip zero) : 8FF4031C
AccurateRip v1 signature : D9A6D306
AccurateRip v2 signature : 0F2C2398
->Track not present in AccurateRip database.
Statistics
Read error : 0
Jitter error (maybe fixed) : 0
Retry sector count : 0
Damaged sector count : 0
No errors occurred
End of status report
-----BEGIN XLD SIGNATURE-----
WY2Er0kGQmtgW7Ja66WtCqgQRYWEt_12CKUnCGkEC.FKrPq1KkkDCUQHzC4URRhjV2kkcQXd_E6lGRycf0b2eLTfObDhOK93kVQNlbK
-----END XLD SIGNATURE-----
 
Содержание индексной карты (.CUE)
TITLE "Medicine Buddha"
PERFORMER "Billy Bang, William Parker"
REM GENRE "Free Jazz"
REM DATE "2009"
REM DISCNUMBER 1
REM TOTALDISCS 1
REM DISCID 430C6005
REM REPLAYGAIN_ALBUM_GAIN -3.89 dB
REM REPLAYGAIN_ALBUM_PEAK 1.000000
FILE "01 - Medicine Buddha.flac" WAVE
TRACK 01 AUDIO
TITLE "Medicine Buddha"
PERFORMER "Billy Bang, William Parker"
REM COMMENT "Recorded live at The Rubin Museum Of Art, New York, on the 8th May, 2009. Released Nov 2014."
REM REPLAYGAIN_TRACK_GAIN -3.75 dB
REM REPLAYGAIN_TRACK_PEAK 1.000000
INDEX 01 00:00:00
TRACK 02 AUDIO
TITLE "Sky Song"
PERFORMER "Billy Bang, William Parker"
REM COMMENT "Recorded live at The Rubin Museum Of Art, New York, on the 8th May, 2009. Released Nov 2014."
REM REPLAYGAIN_TRACK_GAIN -4.07 dB
REM REPLAYGAIN_TRACK_PEAK 0.932373
INDEX 00 22:31:31
FILE "02 - Sky Song.flac" WAVE
INDEX 01 00:00:00
TRACK 03 AUDIO
TITLE "Bronx Aborigines"
PERFORMER "Billy Bang, William Parker"
REM COMMENT "Recorded live at The Rubin Museum Of Art, New York, on the 8th May, 2009. Released Nov 2014."
REM REPLAYGAIN_TRACK_GAIN -1.21 dB
REM REPLAYGAIN_TRACK_PEAK 0.932373
INDEX 00 06:15:60
FILE "03 - Bronx Aborigines.flac" WAVE
INDEX 01 00:00:00
TRACK 04 AUDIO
TITLE "Eternal Planet (Dedicated To Leroy Jenkins)"
PERFORMER "Billy Bang, William Parker"
REM COMMENT "Recorded live at The Rubin Museum Of Art, New York, on the 8th May, 2009. Released Nov 2014."
REM REPLAYGAIN_TRACK_GAIN -3.76 dB
REM REPLAYGAIN_TRACK_PEAK 0.932373
INDEX 00 03:42:53
FILE "04 - Eternal Planet (Dedicated To Leroy Jenkins).flac" WAVE
INDEX 01 00:00:00
TRACK 05 AUDIO
TITLE "Buddha's Joy"
PERFORMER "Billy Bang, William Parker"
REM COMMENT "Recorded live at The Rubin Museum Of Art, New York, on the 8th May, 2009. Released Nov 2014."
REM REPLAYGAIN_TRACK_GAIN -4.69 dB
REM REPLAYGAIN_TRACK_PEAK 0.932373
INDEX 00 14:22:07
FILE "05 - Buddha's Joy.flac" WAVE
INDEX 01 00:00:00
По всем вопросам пишите личное сообщение пользователю M0p94ok.
09:20
205
Нет комментариев. Ваш будет первым!