Вы используете незарегистрированную версию компонента "Вкладки"!

Поиск

(Free Jazz, Free Improvisation) [CD] Frode Gjerstad Trio with Peter Brotzmann (Oyvind Storesund, Paal Nilssen-Love) - Sharp Knives Cut Deeper - 2003, FLAC (tracks+.cue), lossless

(Free Jazz, Free Improvisation) [CD] Frode Gjerstad Trio with Peter Brotzmann (Oyvind Storesund, Paal Nilssen-Love) - Sharp Knives Cut Deeper - 2003, FLAC (tracks+.cue), lossless
Треклист:
Frode Gjerstad Trio with Peter Brötzmann / Sharp Knives Cut Deeper
Жанр: Free Jazz, Free Improvisation
Носитель: CD
Страна-производитель диска (релиза): Italy
Год издания: 2003
Издатель (лейбл): Splasc(h) Records
Номер по каталогу: CDH 850.2
Аудиокодек: FLAC (*.flac)
Тип рипа: tracks+.cue
Битрейт аудио: lossless
Продолжительность: 66:26
Источник (релизер): cd
Наличие сканов в содержимом раздачи: нет
Треклист:
1. Sharp Knives Cut Deeper (Part 1) 16:03
2. Sharp Knives Cut Deeper (Part 2) 10:43
3. Sharp Knives Cut Deeper (Part 3) 17:24
4. Sharp Knives Cut Deeper (Part 4) 22:01
 
Лог создания рипа
Exact Audio Copy V1.0 beta 3 from 29. August 2011
EAC extraction logfile from 11. February 2015, 11:57
Frode Gjerstad Trio with Peter Brotzmann / Sharp Knives Cut Deeper
Used drive : ASUS DRW-24F1ST a Adapter: 0 ID: 0
Read mode : Secure
Utilize accurate stream : Yes
Defeat audio cache : Yes
Make use of C2 pointers : No
Read offset correction : 6
Overread into Lead-In and Lead-Out : No
Fill up missing offset samples with silence : Yes
Delete leading and trailing silent blocks : No
Null samples used in CRC calculations : Yes
Used interface : Native Win32 interface for Win NT & 2000
Gap handling : Appended to previous track
Used output format : User Defined Encoder
Selected bitrate : 320 kBit/s
Quality : High
Add ID3 tag : No
Command line compressor : D:\Programs\Exact Audio Copy\Flac\flac.exe
Additional command line options : -V -8 -T "Genre=%genre%" -T "Artist=%artist%" -T "Title=%title%" -T "Album=%albumtitle%" -T "Date=%year%" -T "Tracknumber=%tracknr%" -T "Comment=%comment%" %source%
TOC of the extracted CD
Track | Start | Length | Start sector | End sector
---------------------------------------------------------
1 | 0:00.00 | 16:07.31 | 0 | 72555
2 | 16:07.31 | 10:47.13 | 72556 | 121093
3 | 26:54.44 | 17:28.19 | 121094 | 199712
4 | 44:22.63 | 22:03.26 | 199713 | 298963
Track 1
Filename D:\EAC\01 Sharp Knives Cut Deeper (Part 1).wav
Pre-gap length 0:00:02.00
Peak level 100.0 %
Extraction speed 5.6 X
Track quality 99.9 %
Test CRC 1160A2A9
Copy CRC 1160A2A9
Copy OK
Track 2
Filename D:\EAC\02 Sharp Knives Cut Deeper (Part 2).wav
Pre-gap length 0:00:03.45
Peak level 100.0 %
Extraction speed 7.1 X
Track quality 100.0 %
Test CRC 84B571DF
Copy CRC 84B571DF
Copy OK
Track 3
Filename D:\EAC\03 Sharp Knives Cut Deeper (Part 3).wav
Pre-gap length 0:00:03.45
Peak level 100.0 %
Extraction speed 8.3 X
Track quality 100.0 %
Test CRC 46E060BB
Copy CRC 46E060BB
Copy OK
Track 4
Filename D:\EAC\04 Sharp Knives Cut Deeper (Part 4).wav
Pre-gap length 0:00:03.45
Peak level 100.0 %
Extraction speed 9.4 X
Track quality 99.9 %
Test CRC 569B8839
Copy CRC 569B8839
Copy OK
No errors occurred
End of status report
==== Log checksum F1F4F6448DAABA7316002F44EF341774C5363CC57BF255105D3DB39429F0F2B8 ====
 
Содержание индексной карты (.CUE)
REM GENRE Jazz
REM DATE 2003
REM DISCID 3A0F9204
REM COMMENT "ExactAudioCopy v1.0b3"
PERFORMER "Frode Gjerstad Trio with Peter Brotzmann"
TITLE "Sharp Knives Cut Deeper"
FILE "01 Sharp Knives Cut Deeper (Part 1).wav" WAVE
TRACK 01 AUDIO
TITLE "Sharp Knives Cut Deeper (Part 1)"
PERFORMER "Frode Gjerstad Trio with Peter Brotzmann"
FLAGS DCP
INDEX 01 00:00:00
TRACK 02 AUDIO
TITLE "Sharp Knives Cut Deeper (Part 2)"
PERFORMER "Frode Gjerstad Trio with Peter Brotzmann"
FLAGS DCP
INDEX 00 16:03:61
FILE "02 Sharp Knives Cut Deeper (Part 2).wav" WAVE
INDEX 01 00:00:00
TRACK 03 AUDIO
TITLE "Sharp Knives Cut Deeper (Part 3)"
PERFORMER "Frode Gjerstad Trio with Peter Brotzmann"
FLAGS DCP
INDEX 00 10:43:43
FILE "03 Sharp Knives Cut Deeper (Part 3).wav" WAVE
INDEX 01 00:00:00
TRACK 04 AUDIO
TITLE "Sharp Knives Cut Deeper (Part 4)"
PERFORMER "Frode Gjerstad Trio with Peter Brotzmann"
FLAGS DCP
INDEX 00 17:24:49
FILE "04 Sharp Knives Cut Deeper (Part 4).wav" WAVE
INDEX 01 00:00:00
Доп. информация: Recorded on December 22nd, 2001 at Lille Konsertsal, Stavanger, Norway.
 
Об альбоме (сборнике)
Frode Gjerstad is a bit of an anomaly: He hails from Norway, but his unfettered in-your-face free improvisational approach is closer stylistically to the Middle European or American avant-garde than to anything emanating from his homeland. Thus it is little surprise that he invited Peter Brötzmann, one of the roughest and toughest of them all, and someone with whom Gjerstad has performed and recorded previously, to join him for this live performance with the Scandinavian's regular trio. The collaboration results in some of Gjerstad's best performances on disc. He seems inspired by Brötzmann's intensity, and elevated to pursue focused lines of considerable depth. The variety of horns (alto and tenor saxophones, various clarinets, and taragato) adds to the interest, making it much more than two saxes blasting away. The volume level, too, is pleasantly varied, and even though these completely free improvisations are devoid of anything approaching melody, they are nonetheless less muscular (though not necessarily less appealing) than most of Brötzmann's recordings as a leader. Sometimes the saxes solo together, and sometimes they perform alone, but each of the four "parts" of the "suite" is a good introduction to Gjerstad, who impresses with sophisticated and surprisingly nuanced blowing. Brötzmann is in full bloom with a stunning performance on the final track that is among his finest on disc.
 
Состав
Alto Saxophone, Clarinet [Clarinets], Recorded By – Frode Gjerstad
Double Bass – Øyvind Storesund
Drums – Paal Nilssen-Love
Tenor Saxophone, Tárogató, Clarinet [Clarinets] – Peter Brötzmann
По всем вопросам пишите личное сообщение пользователю M0p94ok.
09:20
186
Нет комментариев. Ваш будет первым!