Вы используете незарегистрированную версию компонента "Вкладки"!

Поиск

(Avant-Garde Jazz, Free Improvisation) Aki Takase, Rudi Mahall - The Dessert - 2003, FLAC (tracks+.cue), lossless

(Avant-Garde Jazz, Free Improvisation) Aki Takase, Rudi Mahall - The Dessert - 2003, FLAC (tracks+.cue), lossless
Треклист:
Aki Takase, Rudi Mahall / The Dessert
Жанр: Avant-Garde Jazz, Free Improvisation
Страна-производитель диска (релиза): UK
Год издания: 2003
Издатель (лейбл): Leo Records
Номер по каталогу: CD LR 370
Аудиокодек: FLAC (*.flac)
Тип рипа: tracks+.cue
Битрейт аудио: lossless
Продолжительность: 63:25
Источник (релизер): CD
Наличие сканов в содержимом раздачи: нет
Треклист:
1. Head In, Head Out 2:37
2. Apple Cake 4:18
3. With Egg 1:55
4. Panna Cotta 4:34
5. Ear In, Ear Out 3:35
6. Purity And Sweetness 7:35
7. Another Sausage Roll 2:10
8. Creme Au Caramel 5:47
9. Granatapfelsirup 5:02
10. Voskresenie 3:36
11. Raskaz 3:28
12. Black Pudding 1:59
13. Pirodjok 2:55
14. Anekdot 1. 4:52
15. Anekdot 2. 3:28
16. Anekdot 3. 2:23
17. Anekdot 4. 3:05
 
Лог создания рипа
Exact Audio Copy V1.0 beta 3 from 29. August 2011
EAC extraction logfile from 24. April 2015, 11:53
Aki Takase, Rudi Mahall / The Dessert
Used drive : ASUS DRW-24F1ST a Adapter: 0 ID: 0
Read mode : Secure
Utilize accurate stream : Yes
Defeat audio cache : Yes
Make use of C2 pointers : No
Read offset correction : 6
Overread into Lead-In and Lead-Out : No
Fill up missing offset samples with silence : Yes
Delete leading and trailing silent blocks : No
Null samples used in CRC calculations : Yes
Used interface : Native Win32 interface for Win NT & 2000
Gap handling : Appended to previous track
Used output format : User Defined Encoder
Selected bitrate : 320 kBit/s
Quality : High
Add ID3 tag : No
Command line compressor : D:\Programs\Exact Audio Copy\Flac\flac.exe
Additional command line options : -V -8 -T "Genre=%genre%" -T "Artist=%artist%" -T "Title=%title%" -T "Album=%albumtitle%" -T "Date=%year%" -T "Tracknumber=%tracknr%" -T "Comment=%comment%" %source%
TOC of the extracted CD
Track | Start | Length | Start sector | End sector
---------------------------------------------------------
1 | 0:00.00 | 2:37.33 | 0 | 11807
2 | 2:37.33 | 4:18.49 | 11808 | 31206
3 | 6:56.07 | 1:55.68 | 31207 | 39899
4 | 8:52.00 | 4:33.66 | 39900 | 60440
5 | 13:25.66 | 3:34.62 | 60441 | 76552
6 | 17:00.53 | 7:35.30 | 76553 | 110707
7 | 24:36.08 | 2:10.11 | 110708 | 120468
8 | 26:46.19 | 5:47.15 | 120469 | 146508
9 | 32:33.34 | 5:01.53 | 146509 | 169136
10 | 37:35.12 | 3:35.63 | 169137 | 185324
11 | 41:11.00 | 3:28.02 | 185325 | 200926
12 | 44:39.02 | 1:59.47 | 200927 | 209898
13 | 46:38.49 | 2:58.31 | 209899 | 223279
14 | 49:37.05 | 4:52.48 | 223280 | 245227
15 | 54:29.53 | 3:28.04 | 245228 | 260831
16 | 57:57.57 | 2:23.10 | 260832 | 271566
17 | 60:20.67 | 3:04.70 | 271567 | 285436
Track 1
Filename D:\EAC\01 Head In, Head Out.wav
Pre-gap length 0:00:02.00
Peak level 91.2 %
Extraction speed 4.2 X
Track quality 100.0 %
Test CRC 9C0AEE0E
Copy CRC 9C0AEE0E
Copy OK
Track 2
Filename D:\EAC\02 Apple Cake.wav
Peak level 91.2 %
Extraction speed 4.4 X
Track quality 99.9 %
Test CRC 3F272FE5
Copy CRC 3F272FE5
Copy OK
Track 3
Filename D:\EAC\03 With Egg.wav
Peak level 91.2 %
Extraction speed 4.5 X
Track quality 100.0 %
Test CRC 04664AFD
Copy CRC 04664AFD
Copy OK
Track 4
Filename D:\EAC\04 Panna Cotta.wav
Peak level 91.2 %
Extraction speed 5.1 X
Track quality 99.9 %
Test CRC F353D12B
Copy CRC F353D12B
Copy OK
Track 5
Filename D:\EAC\05 Ear In, Ear Out.wav
Peak level 91.2 %
Extraction speed 5.8 X
Track quality 100.0 %
Test CRC FBBDCE17
Copy CRC FBBDCE17
Copy OK
Track 6
Filename D:\EAC\06 Purity and Sweetness.wav
Peak level 91.2 %
Extraction speed 6.8 X
Track quality 100.0 %
Test CRC 5BBE22B8
Copy CRC 5BBE22B8
Copy OK
Track 7
Filename D:\EAC\07 Another Sausage Roll.wav
Peak level 91.2 %
Extraction speed 4.9 X
Track quality 99.9 %
Test CRC 0BAAA395
Copy CRC 0BAAA395
Copy OK
Track 8
Filename D:\EAC\08 Creme Au Caramel.wav
Peak level 91.2 %
Extraction speed 7.4 X
Track quality 100.0 %
Test CRC 5235431C
Copy CRC 5235431C
Copy OK
Track 9
Filename D:\EAC\09 Granatapfelsirup.wav
Peak level 82.7 %
Extraction speed 7.7 X
Track quality 100.0 %
Test CRC C16B4A66
Copy CRC C16B4A66
Copy OK
Track 10
Filename D:\EAC\10 Voskresenie.wav
Peak level 88.0 %
Extraction speed 7.5 X
Track quality 100.0 %
Test CRC 2F094F15
Copy CRC 2F094F15
Copy OK
Track 11
Filename D:\EAC\11 Raskaz.wav
Peak level 100.0 %
Extraction speed 7.7 X
Track quality 100.0 %
Test CRC B73C3221
Copy CRC B73C3221
Copy OK
Track 12
Filename D:\EAC\12 Black Pudding.wav
Peak level 70.1 %
Extraction speed 7.0 X
Track quality 100.0 %
Test CRC 1D0249E0
Copy CRC 1D0249E0
Copy OK
Track 13
Filename D:\EAC\13 Pirodjok.wav
Peak level 91.2 %
Extraction speed 7.8 X
Track quality 100.0 %
Test CRC A9D3E7E7
Copy CRC A9D3E7E7
Copy OK
Track 14
Filename D:\EAC\14 Anekdot 1..wav
Pre-gap length 0:00:03.00
Peak level 91.2 %
Extraction speed 8.5 X
Track quality 100.0 %
Test CRC A06F01CA
Copy CRC A06F01CA
Copy OK
Track 15
Filename D:\EAC\15 Anekdot 2..wav
Peak level 91.2 %
Extraction speed 8.3 X
Track quality 100.0 %
Test CRC 53C41817
Copy CRC 53C41817
Copy OK
Track 16
Filename D:\EAC\16 Anekdot 3..wav
Peak level 91.2 %
Extraction speed 7.9 X
Track quality 100.0 %
Test CRC 7DF183B3
Copy CRC 7DF183B3
Copy OK
Track 17
Filename D:\EAC\17 Anekdot 4..wav
Peak level 91.2 %
Extraction speed 5.2 X
Track quality 99.9 %
Test CRC EBA05AE9
Copy CRC EBA05AE9
Copy OK
No errors occurred
End of status report
==== Log checksum 2BAD69EF200224C910E6C3F736A03FC4941F9FF3E9B250BF477A28270583CF72 ====
 
Содержание индексной карты (.CUE)
REM GENRE Jazz
REM DATE 2003
REM DISCID FC0EDD11
REM COMMENT "ExactAudioCopy v1.0b3"
PERFORMER "Aki Takase, Rudi Mahall"
TITLE "The Dessert"
FILE "01 Head In, Head Out.wav" WAVE
TRACK 01 AUDIO
TITLE "Head In, Head Out"
PERFORMER "Aki Takase, Rudi Mahall"
FLAGS DCP
INDEX 01 00:00:00
FILE "02 Apple Cake.wav" WAVE
TRACK 02 AUDIO
TITLE "Apple Cake"
PERFORMER "Aki Takase, Rudi Mahall"
FLAGS DCP
INDEX 01 00:00:00
FILE "03 With Egg.wav" WAVE
TRACK 03 AUDIO
TITLE "With Egg"
PERFORMER "Aki Takase, Rudi Mahall"
FLAGS DCP
INDEX 01 00:00:00
FILE "04 Panna Cotta.wav" WAVE
TRACK 04 AUDIO
TITLE "Panna Cotta"
PERFORMER "Aki Takase, Rudi Mahall"
FLAGS DCP
INDEX 01 00:00:00
FILE "05 Ear In, Ear Out.wav" WAVE
TRACK 05 AUDIO
TITLE "Ear In, Ear Out"
PERFORMER "Aki Takase, Rudi Mahall"
FLAGS DCP
INDEX 01 00:00:00
FILE "06 Purity and Sweetness.wav" WAVE
TRACK 06 AUDIO
TITLE "Purity and Sweetness"
PERFORMER "Aki Takase, Rudi Mahall"
FLAGS DCP
INDEX 01 00:00:00
FILE "07 Another Sausage Roll.wav" WAVE
TRACK 07 AUDIO
TITLE "Another Sausage Roll"
PERFORMER "Aki Takase, Rudi Mahall"
FLAGS DCP
INDEX 01 00:00:00
FILE "08 Creme Au Caramel.wav" WAVE
TRACK 08 AUDIO
TITLE "Creme Au Caramel"
PERFORMER "Aki Takase, Rudi Mahall"
FLAGS DCP
INDEX 01 00:00:00
FILE "09 Granatapfelsirup.wav" WAVE
TRACK 09 AUDIO
TITLE "Granatapfelsirup"
PERFORMER "Aki Takase, Rudi Mahall"
FLAGS DCP
INDEX 01 00:00:00
FILE "10 Voskresenie.wav" WAVE
TRACK 10 AUDIO
TITLE "Voskresenie"
PERFORMER "Aki Takase, Rudi Mahall"
FLAGS DCP
INDEX 01 00:00:00
FILE "11 Raskaz.wav" WAVE
TRACK 11 AUDIO
TITLE "Raskaz"
PERFORMER "Aki Takase, Rudi Mahall"
FLAGS DCP
INDEX 01 00:00:00
FILE "12 Black Pudding.wav" WAVE
TRACK 12 AUDIO
TITLE "Black Pudding"
PERFORMER "Aki Takase, Rudi Mahall"
FLAGS DCP
INDEX 01 00:00:00
FILE "13 Pirodjok.wav" WAVE
TRACK 13 AUDIO
TITLE "Pirodjok"
PERFORMER "Aki Takase, Rudi Mahall"
FLAGS DCP
INDEX 01 00:00:00
TRACK 14 AUDIO
TITLE "Anekdot 1."
PERFORMER "Aki Takase, Rudi Mahall"
FLAGS DCP
INDEX 00 02:55:31
FILE "14 Anekdot 1..wav" WAVE
INDEX 01 00:00:00
FILE "15 Anekdot 2..wav" WAVE
TRACK 15 AUDIO
TITLE "Anekdot 2."
PERFORMER "Aki Takase, Rudi Mahall"
FLAGS DCP
INDEX 01 00:00:00
FILE "16 Anekdot 3..wav" WAVE
TRACK 16 AUDIO
TITLE "Anekdot 3."
PERFORMER "Aki Takase, Rudi Mahall"
FLAGS DCP
INDEX 01 00:00:00
FILE "17 Anekdot 4..wav" WAVE
TRACK 17 AUDIO
TITLE "Anekdot 4."
PERFORMER "Aki Takase, Rudi Mahall"
FLAGS DCP
INDEX 01 00:00:00
Доп. информация: Recorded december 5, 6, 19, 2002 at KlangHaus, Hamburg and Audio Cue, Berlin.
 
Об альбоме (сборнике)
Previous collaborations between pianist Aki Takase and bass clarinetist Rudi Mahall have resulted in clever recapitulations of W. C. Handy and Eric Dolphy tunes. The Dessert allows both artists the freedom of a completely self-penned CD to present 17 pieces that emphasize their delectable dynamics. On the sweetest slices, piano and bass clarinet blend to create music that straddles the line between unstructured creativity and prescribed composition. The resultant musical aperitifs, while symbolizing oral delicacies, tickle the aural palate as well.
Takase's compositions are the most savory. The deliciously happy "Apple Cake" sets up with precise playing and quick tempo changes while "Panna Cotta" and "Crème au Caramel" are as elegant and rich as their vanilla cream and delicate egg custard gustatory counterparts. "Granatapfelsirup" adds the flavor and color of grenadine syrup to the mixture with its daring improvisational interplay. Piano lines are classical in feel and accuracy, as the polish of contemporary classical intermingles with the spontaneity of jazz.
Mahall's playing, particularly on his own compositions, blends in a bounty of random ingredients. These short forays enable the duo to be their most bold. The opening feedback noise of "Ear in, Ear out" and the warm deep resonance of "Black Pudding" demonstrate the range of Mahall's instrument, while "Another Sausage Roll" boasts large intervalic leaps that frame a catchy melody. The rarely heard contrabass clarinet dishes up rarefied sounds to help initiate the final, jointly composed four numbers, "Anekdots 1-4." They serve to bring the after-dessert conversation to an interesting conclusion. Both humorous and daring, The Dessert is an adventurously caloric addition to any musical diet.
 
Состав
Bass Clarinet, Clarinet, Contrabass – Rudi Mahall
Piano – Aki Takase
По всем вопросам пишите личное сообщение пользователю M0p94ok.
13:11
145
Нет комментариев. Ваш будет первым!