Поиск

(Free Jazz) [CD] Ivo Perelman (Joseph Scianni, Jay Rosen) - The Seven Energies Of The Universe - 2001, FLAC (tracks+.cue), lossless

(Free Jazz) [CD] Ivo Perelman (Joseph Scianni, Jay Rosen) - The Seven Energies Of The Universe - 2001, FLAC (tracks+.cue), lossless
Треклист:
Ivo Perelman / The Seven Energies Of The Universe
Жанр: Free Jazz
Носитель: CD
Страна-производитель диска (релиза): UK
Год издания: 2001
Издатель (лейбл): Leo Records
Номер по каталогу: CD LR 309
Аудиокодек: FLAC (*.flac)
Тип рипа: tracks+.cue
Битрейт аудио: lossless
Продолжительность: 53:35
Источник (релизер): cd
Наличие сканов в содержимом раздачи: нет
Треклист:
1. Passion 3:38
2. Fruition 23:00
3. Conversion 6:42
4. Living And Life 4:26
5. Maleness 7:42
6. Femaleness 3:27
7. Endlessness 4:24
 
Лог создания рипа
Exact Audio Copy V1.0 beta 3 from 29. August 2011
EAC extraction logfile from 28. April 2015, 18:01
Ivo Perelman / The Seven Energies Of The Universe
Used drive : ASUS DRW-24F1ST a Adapter: 0 ID: 0
Read mode : Secure
Utilize accurate stream : Yes
Defeat audio cache : Yes
Make use of C2 pointers : No
Read offset correction : 6
Overread into Lead-In and Lead-Out : No
Fill up missing offset samples with silence : Yes
Delete leading and trailing silent blocks : No
Null samples used in CRC calculations : Yes
Used interface : Native Win32 interface for Win NT & 2000
Gap handling : Appended to previous track
Used output format : User Defined Encoder
Selected bitrate : 320 kBit/s
Quality : High
Add ID3 tag : No
Command line compressor : D:\Programs\Exact Audio Copy\Flac\flac.exe
Additional command line options : -V -8 -T "Genre=%genre%" -T "Artist=%artist%" -T "Title=%title%" -T "Album=%albumtitle%" -T "Date=%year%" -T "Tracknumber=%tracknr%" -T "Comment=%comment%" %source%
TOC of the extracted CD
Track | Start | Length | Start sector | End sector
---------------------------------------------------------
1 | 0:00.00 | 3:39.67 | 0 | 16491
2 | 3:39.67 | 23:04.23 | 16492 | 120314
3 | 26:44.15 | 6:45.15 | 120315 | 150704
4 | 33:29.30 | 4:28.30 | 150705 | 170834
5 | 37:57.60 | 7:44.30 | 170835 | 205664
6 | 45:42.15 | 3:29.07 | 205665 | 221346
7 | 49:11.22 | 4:24.06 | 221347 | 241152
Track 1
Filename D:\EAC\01 Passion.wav
Pre-gap length 0:00:02.00
Peak level 86.4 %
Extraction speed 4.5 X
Track quality 100.0 %
Test CRC 359F9D4E
Copy CRC 359F9D4E
Copy OK
Track 2
Filename D:\EAC\02 Fruition.wav
Pre-gap length 0:00:01.45
Peak level 96.6 %
Extraction speed 6.7 X
Track quality 100.0 %
Test CRC E0740619
Copy CRC E0740619
Copy OK
Track 3
Filename D:\EAC\03 Conversion.wav
Pre-gap length 0:00:01.45
Peak level 85.9 %
Extraction speed 7.7 X
Track quality 100.0 %
Test CRC C596EBD2
Copy CRC C596EBD2
Copy OK
Track 4
Filename D:\EAC\04 Living And Life.wav
Pre-gap length 0:00:01.45
Peak level 47.7 %
Extraction speed 7.6 X
Track quality 100.0 %
Test CRC 86A499E5
Copy CRC 86A499E5
Copy OK
Track 5
Filename D:\EAC\05 Maleness.wav
Pre-gap length 0:00:01.45
Peak level 96.6 %
Extraction speed 8.5 X
Track quality 100.0 %
Test CRC 02207FDE
Copy CRC 02207FDE
Copy OK
Track 6
Filename D:\EAC\06 Femaleness.wav
Pre-gap length 0:00:01.45
Peak level 96.6 %
Extraction speed 8.0 X
Track quality 100.0 %
Test CRC D2206EA9
Copy CRC D2206EA9
Copy OK
Track 7
Filename D:\EAC\07 Endlessness.wav
Pre-gap length 0:00:01.45
Peak level 89.3 %
Extraction speed 8.6 X
Track quality 100.0 %
Test CRC 36EE7146
Copy CRC 36EE7146
Copy OK
No errors occurred
End of status report
==== Log checksum 07FC84F4348B0FADBB47990B62C8C21FD0ADCD6DDCF6F0C21C6F38BF1D8055E2 ====
 
Содержание индексной карты (.CUE)
REM GENRE Jazz
REM DATE 2001
REM DISCID 500C8F07
REM COMMENT "ExactAudioCopy v1.0b3"
PERFORMER "Ivo Perelman"
TITLE "The Seven Energies Of The Universe "
FILE "01 Passion.wav" WAVE
TRACK 01 AUDIO
TITLE "Passion"
PERFORMER "Ivo Perelman"
FLAGS DCP
INDEX 01 00:00:00
TRACK 02 AUDIO
TITLE "Fruition"
PERFORMER "Ivo Perelman"
FLAGS DCP
INDEX 00 03:38:22
FILE "02 Fruition.wav" WAVE
INDEX 01 00:00:00
TRACK 03 AUDIO
TITLE "Conversion"
PERFORMER "Ivo Perelman"
FLAGS DCP
INDEX 00 23:02:53
FILE "03 Conversion.wav" WAVE
INDEX 01 00:00:00
TRACK 04 AUDIO
TITLE "Living And Life"
PERFORMER "Ivo Perelman"
FLAGS DCP
INDEX 00 06:43:45
FILE "04 Living And Life.wav" WAVE
INDEX 01 00:00:00
TRACK 05 AUDIO
TITLE "Maleness"
PERFORMER "Ivo Perelman"
FLAGS DCP
INDEX 00 04:26:60
FILE "05 Maleness.wav" WAVE
INDEX 01 00:00:00
TRACK 06 AUDIO
TITLE "Femaleness"
PERFORMER "Ivo Perelman"
FLAGS DCP
INDEX 00 07:42:60
FILE "06 Femaleness.wav" WAVE
INDEX 01 00:00:00
TRACK 07 AUDIO
TITLE "Endlessness"
PERFORMER "Ivo Perelman"
FLAGS DCP
INDEX 00 03:27:37
FILE "07 Endlessness.wav" WAVE
INDEX 01 00:00:00
Доп. информация: Recorded and mixed at Hillside, April 1998
 
Об альбоме (сборнике)
Hard blowing tenor saxophonist, Ivo Perelman sets The Seven Energies Of The Universe to music on this newly released production. Art critic Eleanor Heartney describes in the liners, “For Perelman, the experience of painting is very similar to the experience of making music”. Furthermore, Ms. Heartney approximates the abstract expressionism art movement with Perelman’s style of free jazz expressionism as the inferences to the “Seven Energies of the Universe” seemingly coalesce. Hence, art encircles life, philosophy, God, cosmic processes and other metaphysical notions.
Here, the saxophonist teams up with frequent collaborator, drummer Jay Rosen and pianist Joseph Scianni, as they polarize the Seven Energies: Passion, Fruition, Conversation, Living and Life, Maleness, Femaleness and Endlessness via passionate interplay and tempestuous statements. However, trying to get through all of this in one sitting demands patience! Even by free-jazz or avant-garde standards, this is a frenetic, all encompassing endeavor spearheaded by Perelman’s onslaught of wailing lines and plaintive cries, yet in certain instances it takes the artist quite awhile to hint at a melody or convey a tangible theme. Sure, Perelman is noted for his zealous phraseology and relentless attack, although when viewed upon as a whole, the trio’s somewhat bombastic performances can be a tad overwhelming and partially distracting.
 
Состав
Drums – Jay Rosen
Music By – Ivo Perelman
Painting [Paintings] – Ivo Perelman
Piano – Joseph Scianni
Tenor Saxophone [Tenor Sax] – Ivo Perelman
12:10
228
Нет комментариев. Ваш будет первым!