Вы используете незарегистрированную версию компонента "Вкладки"!

Поиск

(Avant-Garde Jazz, free funk) Dennis Alston and Jamaaladeen Tacuma - Sound Symphony - 1994, FLAC (tracks+.cue), lossless

(Avant-Garde Jazz, free funk) Dennis Alston and Jamaaladeen Tacuma - Sound Symphony - 1994, FLAC (tracks+.cue), lossless
Треклист:
Dennis Alston and Jamaaladeen Tacuma - Sound Symphony
Жанр:Avant-Garde Jazz, free funk
Год выпуска диска: 1994
Производитель диска: germany
Аудио кодек: FLAC
Тип рипа: tracks+.cue
Битрейт аудио: lossless
Продолжительность: 38:06
Трэклист:
1. Another Place at That Time 7:14
2. The Gates of Salaam 0:12
3. Grab Ya Partner 4:25
4. Wah Wah [Prelude in E Minor] 1:04
5. Love of My Life 5:04
6. Kwasi 0:33
7. Yo Dennis Make It Funky/Jazzy (Make It Mo Better)5:42
8. Love to Love You 1:12
9. African Sunset 4:23
10. Lieutenant Data 2:44
11. A Funky Wah Wah Thang 2:51
12. Grab Ya Partner and Swing It 2:39
Доп. информация:
Label:Moers Music
Catalog #:02082 cd
Rip со своего фирменного cd
 
cd инфо:
Dennis Alston -Drums, Producer, Drum Engineering
Burkhard Hennen -Executive Producer
Bob Musso -Engineer
Jamaaladeen Tacuma- Bass, Bass (Electric), Producer, Fretless Bass
Brothers in progress -rap on 7
 
Log file:
Отчёт EAC об извлечении, выполненном 16. июля 2009, 19:35 для диска:
Jamalaadeen Tacuma / Dennis Alston / Sound Symphony
Дисковод: MATSHITABD-MLT UJ-210S Adapter: 0 ID: 0
Режим чтения: Достоверный (C2: нет, Точный поток: да, Отключение кэша: да)
Коррекция смещения при чтении: 102
Способность читать области Lead-in и Lead-out : Нет
Выходной формат: Внутренние WAV-операции
44.100 Гц; 16 бит; стерео
Другие параметры:
Заполнение пропущенных сэмплов тишиной : Да
Удаление блоков с тишиной в начале и конце : Нет
Встроенный Win32-интерфейс для Win NT/2000
Трек 1
Имя файла J:\temp\Jamalaadeen Tacuma - Dennis Alston , Sound Symphony\01. Another place at that time.wav
Длина предзазора 0:00:02.50
Пиковый уровень 91.0 %
Качество трека 99.9 %
CRC теста DE565BDF
CRC копии DE565BDF
Копирование... OK
Трек 2
Имя файла J:\temp\Jamalaadeen Tacuma - Dennis Alston , Sound Symphony\02. The Gates of Salaam.wav
Длина предзазора 0:00:02.63
Пиковый уровень 89.2 %
Качество трека 100.0 %
CRC теста 427C079A
CRC копии 427C079A
Копирование... OK
Трек 3
Имя файла J:\temp\Jamalaadeen Tacuma - Dennis Alston , Sound Symphony\03. Grab ya Partner.wav
Пиковый уровень 90.0 %
Качество трека 99.9 %
CRC теста 56A6CC82
CRC копии 56A6CC82
Копирование... OK
Трек 4
Имя файла J:\temp\Jamalaadeen Tacuma - Dennis Alston , Sound Symphony\04. Wah Wah (prelude in E minor).wav
Длина предзазора 0:00:02.03
Пиковый уровень 93.0 %
Качество трека 100.0 %
CRC теста 31FC87A3
CRC копии 31FC87A3
Копирование... OK
Трек 5
Имя файла J:\temp\Jamalaadeen Tacuma - Dennis Alston , Sound Symphony\05. Love of my life.wav
Длина предзазора 0:00:00.28
Пиковый уровень 94.8 %
Качество трека 100.0 %
CRC теста CE027B4A
CRC копии CE027B4A
Копирование... OK
Трек 6
Имя файла J:\temp\Jamalaadeen Tacuma - Dennis Alston , Sound Symphony\06. Kwasi.wav
Длина предзазора 0:00:02.13
Пиковый уровень 88.9 %
Качество трека 100.0 %
CRC теста 96513C67
CRC копии 96513C67
Копирование... OK
Трек 7
Имя файла J:\temp\Jamalaadeen Tacuma - Dennis Alston , Sound Symphony\07. Yo Dennis make it funky,jazzy.wav
Пиковый уровень 97.2 %
Качество трека 99.9 %
CRC теста 3AEC3605
CRC копии 3AEC3605
Копирование... OK
Трек 8
Имя файла J:\temp\Jamalaadeen Tacuma - Dennis Alston , Sound Symphony\08. Love to love you.wav
Длина предзазора 0:00:02.68
Пиковый уровень 82.3 %
Качество трека 100.0 %
CRC теста B1FDB85E
CRC копии B1FDB85E
Копирование... OK
Трек 9
Имя файла J:\temp\Jamalaadeen Tacuma - Dennis Alston , Sound Symphony\09. African sunset.wav
Длина предзазора 0:00:00.01
Пиковый уровень 92.2 %
Качество трека 99.9 %
CRC теста AF782241
CRC копии AF782241
Копирование... OK
Трек 10
Имя файла J:\temp\Jamalaadeen Tacuma - Dennis Alston , Sound Symphony\10. Lieutenant Data.wav
Длина предзазора 0:00:02.00
Пиковый уровень 88.9 %
Качество трека 99.9 %
CRC теста 436D8B45
CRC копии 436D8B45
Копирование... OK
Трек 11
Имя файла J:\temp\Jamalaadeen Tacuma - Dennis Alston , Sound Symphony\11. A funky Wah Wah thang.wav
Длина предзазора 0:00:03.35
Пиковый уровень 92.3 %
Качество трека 99.9 %
CRC теста 0C06DCA4
CRC копии 0C06DCA4
Копирование... OK
Трек 12
Имя файла J:\temp\Jamalaadeen Tacuma - Dennis Alston , Sound Symphony\12. Grab ya partner and swing it.wav
Пиковый уровень 97.5 %
Качество трека 100.0 %
CRC теста 03D8B44D
CRC копии 03D8B44D
Копирование... OK
Ошибок не произошло
Конец отчёта
 
Содержание индексной карты (.CUE):
REM GENRE Jazz+Funk
REM DATE 1992
REM DISCID A108EC0C
REM COMMENT "ExactAudioCopy v0.95b4"
PERFORMER "Jamalaadeen Tacuma"
TITLE "Dennis Alston / Sound Symphony"
FILE "01. Another place at that time.wav" WAVE
TRACK 01 AUDIO
TITLE "Another place at that time"
PERFORMER "Jamalaadeen Tacuma"
PREGAP 00:00:50
INDEX 01 00:00:00
TRACK 02 AUDIO
TITLE "The Gates of Salaam"
PERFORMER "Jamalaadeen Tacuma"
INDEX 00 07:11:12
FILE "02. The Gates of Salaam.wav" WAVE
INDEX 01 00:00:00
FILE "03. Grab ya Partner.wav" WAVE
TRACK 03 AUDIO
TITLE "Grab ya Partner"
PERFORMER "Jamalaadeen Tacuma"
INDEX 01 00:00:00
TRACK 04 AUDIO
TITLE "Wah Wah (prelude in E minor)"
PERFORMER "Jamalaadeen Tacuma"
INDEX 00 04:22:72
FILE "04. Wah Wah (prelude in E minor).wav" WAVE
INDEX 01 00:00:00
TRACK 05 AUDIO
TITLE "Love of my life"
PERFORMER "Jamalaadeen Tacuma"
INDEX 00 01:03:47
FILE "05. Love of my life.wav" WAVE
INDEX 01 00:00:00
TRACK 06 AUDIO
TITLE "Kwasi"
PERFORMER "Jamalaadeen Tacuma"
INDEX 00 05:01:62
FILE "06. Kwasi.wav" WAVE
INDEX 01 00:00:00
FILE "07. Yo Dennis make it funky,jazzy.wav" WAVE
TRACK 07 AUDIO
TITLE "Yo Dennis make it funky/jazzy"
PERFORMER "Jamalaadeen Tacuma"
INDEX 01 00:00:00
TRACK 08 AUDIO
TITLE "Love to love you"
PERFORMER "Jamalaadeen Tacuma"
INDEX 00 05:39:07
FILE "08. Love to love you.wav" WAVE
INDEX 01 00:00:00
TRACK 09 AUDIO
TITLE "African sunset"
PERFORMER "Jamalaadeen Tacuma"
INDEX 00 01:11:74
FILE "09. African sunset.wav" WAVE
INDEX 01 00:00:00
TRACK 10 AUDIO
TITLE "Lieutenant Data"
PERFORMER "Jamalaadeen Tacuma"
INDEX 00 04:21:00
FILE "10. Lieutenant Data.wav" WAVE
INDEX 01 00:00:00
TRACK 11 AUDIO
TITLE "A funky Wah Wah thang"
PERFORMER "Jamalaadeen Tacuma"
INDEX 00 02:40:40
FILE "11. A funky Wah Wah thang.wav" WAVE
INDEX 01 00:00:00
FILE "12. Grab ya partner and swing it.wav" WAVE
TRACK 12 AUDIO
TITLE "Grab ya partner and swing it"
PERFORMER "Jamalaadeen Tacuma"
INDEX 01 00:00:00
 
скрытый текст
По всем вопросам пишите личное сообщение пользователю M0p94ok.
12:48
184
Нет комментариев. Ваш будет первым!