Вы используете незарегистрированную версию компонента "Вкладки"!

Поиск

(Avant-Garde Jazz,World Fusion) Galileo's Left Wing - Live - 1993, FLAC (tracks+.cue), lossless

(Avant-Garde Jazz,World Fusion) Galileo's Left Wing - Live - 1993, FLAC (tracks+.cue), lossless
Треклист:
Galileo's Left Wing - Live
Жанр:Avant-Garde Jazz, World Fusion
Год выпуска диска: 1993
Производитель диска: austria
Аудио кодек: FLAC
Тип рипа: tracks+.cue
Битрейт аудио: lossless
Продолжительность: 51:23
Трэклист:
1 Kora 4:39
2 Gnaoua 6:58
3 Batum 6:46
4 Udemia 7:35
5 De Sluiting 8:42
6 Remember 4:41
7 Hicaz Oyun Havas 5:19
8 Galileo's Left Wing 6:40
Доп. информация:
Label:Carbon 7
Cat #:C7-009
 
Диск инфо
band:
luk mishalle-tenor and soprano saxophones,vocals,percussion
danny de cort-electric guitar
guy segers-6-string bass guitar
dirk wachtelaer-drums
special guests:
tlp-rap on 1,6,8
rachid hamdaoui-derboukka on 1,8
 
Лог файл
Отчёт EAC об извлечении, выполненном 16. июля 2009, 16:52 для диска:
Galileo's Left Wing / Live
Дисковод: MATSHITABD-MLT UJ-210S Adapter: 0 ID: 0
Режим чтения: Достоверный (C2: нет, Точный поток: да, Отключение кэша: да)
Коррекция смещения при чтении: 102
Способность читать области Lead-in и Lead-out : Нет
Выходной формат: Внутренние WAV-операции
44.100 Гц; 16 бит; стерео
Другие параметры:
Заполнение пропущенных сэмплов тишиной : Да
Удаление блоков с тишиной в начале и конце : Нет
Встроенный Win32-интерфейс для Win NT/2000
Трек 1
Имя файла J:\temp\Galileo's Left Wing - Live\01. Kora.wav
Длина предзазора 0:00:02.32
Пиковый уровень 99.0 %
Качество трека 100.0 %
CRC теста F73AD1FC
CRC копии F73AD1FC
Копирование... OK
Трек 2
Имя файла J:\temp\Galileo's Left Wing - Live\02. Gnaoua.wav
Пиковый уровень 99.0 %
Качество трека 99.9 %
CRC теста 01ADD69D
CRC копии 01ADD69D
Копирование... OK
Трек 3
Имя файла J:\temp\Galileo's Left Wing - Live\03. Batum.wav
Длина предзазора 0:00:00.16
Пиковый уровень 99.0 %
Качество трека 99.9 %
CRC теста 2C2D7FD4
CRC копии 2C2D7FD4
Копирование... OK
Трек 4
Имя файла J:\temp\Galileo's Left Wing - Live\04. Udemia.wav
Длина предзазора 0:00:02.59
Пиковый уровень 99.0 %
Качество трека 100.0 %
CRC теста 37EFD3A9
CRC копии 37EFD3A9
Копирование... OK
Трек 5
Имя файла J:\temp\Galileo's Left Wing - Live\05. De Sluiting.wav
Длина предзазора 0:00:00.30
Пиковый уровень 99.0 %
Качество трека 100.0 %
CRC теста 632A0EF0
CRC копии 632A0EF0
Копирование... OK
Трек 6
Имя файла J:\temp\Galileo's Left Wing - Live\06. Remember.wav
Длина предзазора 0:00:00.10
Пиковый уровень 99.0 %
Качество трека 100.0 %
CRC теста 8ADB3664
CRC копии 8ADB3664
Копирование... OK
Трек 7
Имя файла J:\temp\Galileo's Left Wing - Live\07. Hicaz Oyun Havas.wav
Длина предзазора 0:00:00.22
Пиковый уровень 99.0 %
Качество трека 100.0 %
CRC теста 39FF8BE3
CRC копии 39FF8BE3
Копирование... OK
Трек 8
Имя файла J:\temp\Galileo's Left Wing - Live\08. Galileo's Left Wing.wav
Длина предзазора 0:00:00.17
Пиковый уровень 99.0 %
Качество трека 100.0 %
CRC теста EF6EA8D7
CRC копии EF6EA8D7
Копирование... OK
Ошибок не произошло
Конец отчёта
RIP со своего фирменного CD
 
Содержание индексной карты (.CUE):
REM GENRE "Progressive Rock"
REM DATE 1993
REM DISCID 650C0908
REM COMMENT "ExactAudioCopy v0.95b4"
CATALOG 0000000000000
PERFORMER "Galileo's Left Wing"
TITLE "Live"
FILE "01. Kora.wav" WAVE
TRACK 01 AUDIO
TITLE "Kora"
PERFORMER "Galileo's Left Wing"
PREGAP 00:00:32
INDEX 01 00:00:00
FILE "02. Gnaoua.wav" WAVE
TRACK 02 AUDIO
TITLE "Gnaoua"
PERFORMER "Galileo's Left Wing"
INDEX 01 00:00:00
TRACK 03 AUDIO
TITLE "Batum"
PERFORMER "Galileo's Left Wing"
INDEX 00 06:57:64
FILE "03. Batum.wav" WAVE
INDEX 01 00:00:00
TRACK 04 AUDIO
TITLE "Udemia"
PERFORMER "Galileo's Left Wing"
INDEX 00 06:43:21
FILE "04. Udemia.wav" WAVE
INDEX 01 00:00:00
TRACK 05 AUDIO
TITLE "De Sluiting"
PERFORMER "Galileo's Left Wing"
INDEX 00 07:34:40
FILE "05. De Sluiting.wav" WAVE
INDEX 01 00:00:00
TRACK 06 AUDIO
TITLE "Remember"
PERFORMER "Galileo's Left Wing"
INDEX 00 08:42:08
FILE "06. Remember.wav" WAVE
INDEX 01 00:00:00
TRACK 07 AUDIO
TITLE "Hicaz Oyun Havas"
PERFORMER "Galileo's Left Wing"
INDEX 00 04:40:53
FILE "07. Hicaz Oyun Havas.wav" WAVE
INDEX 01 00:00:00
TRACK 08 AUDIO
TITLE "Galileo's Left Wing"
PERFORMER "Galileo's Left Wing"
INDEX 00 05:18:63
FILE "08. Galileo's Left Wing.wav" WAVE
INDEX 01 00:00:00
 
скрытый текст
Any questions -> support@pro-jazz.com. По всем вопросам пишите -> support@pro-jazz.com
12:47
162
Нет комментариев. Ваш будет первым!