Вы используете незарегистрированную версию компонента "Вкладки"!

Поиск

(Avant-Garde / Modern Creative / Cryptogramophone) Alex Cline / Jeff Gauthier / G.E. Stinson - The Other Shore - 2000, FLAC (image+.cue), lossless

(Avant-Garde / Modern Creative / Cryptogramophone) Alex Cline / Jeff Gauthier / G.E. Stinson - The Other Shore - 2000, FLAC (image+.cue), lossless
Треклист:
Alex Cline / Jeff Gauthier / G.E. Stinson - The Other Shore
Жанр: Avant-Garde / Modern Creative / Cryptogramophone
Год выпуска диска: 2000
Производитель диска: USA (Cryptogramophone CG 106)
Аудио кодек: FLAC
Тип рипа: image+.cue
Битрейт аудио: lossless
Продолжительность: 1:13:58
Alex Cline percussion
Jeff Gauthier electric violins, electric mandolin
G.E. Stinson electric guitars, dobro, implements
1. Asunder
2. Thus Have I Heard
3. Left On
4. Froggy's Midnight Cabaret
5. Gigantic Human Frame
6. Oceans Once Deserts
7. Driving to Iceland
8. Born From Moisture
9. Nothing to Teach

 
AMG Review
Don't let the Zen references fool you -- this is not music for meditation. On the contrary, these nine improvisations by guitarist G.E. Stinson, electric violinist Jeff Gauthier, and percussionist Alex Cline are consistently challenging and sometimes downright abrasive. What saves the music from inaccessibility is a combination of three things: First, Gauthier and Stinson tend to work in washes, generally employing effects that minimize attack and create big, floating nimbuses of sound. Second, Cline tends to use percussion as a textural (rather than a rhythmic) tool. Third, each member of the trio consciously works to subsume his individual contributions into the ensemble sound; this means that each player is constantly adding new ideas, but no one pushes to the front or plays any "look at me" licks. Only Gauthier tends to stand out, by virtue of the tone of his instrument -- on "Asunder" and "Driving to Iceland," for instance, he weaves his keening violin through clouds of heavily treated guitar and pointillistic percussion. There are some whimsical moments, such as the jaunty and clattery "Froggy's Midnight Cabaret" (which sounds kind of like a homage to Fred Frith). But, paradoxically (remember those Zen references?), the album's climax is the glacially slow "Nothing to Teach," which ends the program with ten minutes of very little sound -- a minimal violin part that sounds like something out of an Arvo Part composition, a suspended wash of guitar, an occasional gong. It's a strange, slightly eerie, but ultimately deeply moving piece, a fitting end to a stunning album. ~ Rick Anderson, AMG
 
EAC Report
Exact Audio Copy V0.99 prebeta 4 from 23. January 2008
EAC extraction logfile from 8. July 2009, 15:01
Alex Cline / Jeff Gauthier / G.E. Stinson / The Other Shore
Used drive : HL-DT-STDVD-ROM GDR8162B Adapter: 1 ID: 0
Read mode : Secure
Utilize accurate stream : Yes
Defeat audio cache : Yes
Make use of C2 pointers : No
Read offset correction : 102
Overread into Lead-In and Lead-Out : No
Fill up missing offset samples with silence : Yes
Delete leading and trailing silent blocks : No
Null samples used in CRC calculations : Yes
Used interface : Installed external ASPI interface
Used output format : User Defined Encoder
Selected bitrate : 1024 kBit/s
Quality : High
Add ID3 tag : No
Command line compressor : C:\Program Files\Exact Audio Copy\FLAC\FLAC.EXE
Additional command line options : -6 -V -T "ARTIST=%a" -T "TITLE=%t" -T "ALBUM=%g" -T "DATE=%y" -T "TRACKNUMBER=%n" -T "GENRE=%m" -T "COMMENT=%e" %s -o %d
TOC of the extracted CD
Track | Start | Length | Start sector | End sector
---------------------------------------------------------
1 | 0:00.00 | 11:54.01 | 0 | 53550
2 | 11:54.01 | 6:31.45 | 53551 | 82920
3 | 18:25.46 | 10:23.29 | 82921 | 129674
4 | 28:49.00 | 7:53.22 | 129675 | 165171
5 | 36:42.22 | 3:04.25 | 165172 | 178996
6 | 39:46.47 | 6:27.42 | 178997 | 208063
7 | 46:14.14 | 12:49.59 | 208064 | 265797
8 | 59:03.73 | 5:03.37 | 265798 | 288559
9 | 64:07.35 | 9:50.54 | 288560 | 332863
Range status and errors
Selected range
Filename C:\eac\Cline Gauthier Stinson - The Other Shore.wav
Peak level 96.6 %
Range quality 100.0 %
Test CRC 1E6EC40D
Copy CRC 1E6EC40D
Copy OK
No errors occurred
End of status report

Также смотри Alex Cline / Jeff Gauthier / G.E. Stinson - Right of Violet (1996) k4r70x4
Any questions -> support@pro-jazz.com. По всем вопросам пишите -> support@pro-jazz.com
12:49
150
Нет комментариев. Ваш будет первым!