Вы используете незарегистрированную версию компонента "Вкладки"!

Поиск

(avant-garde jazz) Flat Earth Society - Jazz on 3 Session - 2009, FLAC (tracks+.cue), lossless

(avant-garde jazz) Flat Earth Society - Jazz on 3 Session - 2009, FLAC (tracks+.cue), lossless
Треклист:
Flat Earth Society - Jazz on 3 Session
Жанр: avant-garde jazz
Год выпуска диска: 2009
Аудио кодек: FLAC
Тип рипа: tracks+.cue
Битрейт аудио: lossless
Продолжительность: 47:38
Трэклист:
01 - Bad Linen (5.42)
02 - Betwixt and Between (4.21)
03 - Kotopoulopology (5.03)
04 - Miss Possible (5.51)
05 - Mutt (7.45)
06 - Rearm, Get That Char! (8.19)
07 - Smoke On Fire (6.05)
08 - Vole Sperm Reverie (4.32)
Personnel:
Peter Vermeersch (clarinet)
Benjamin Boutreur (alto sax)
Michel Mast (tenor sax)
Bruno Vansina (baritone sax, flute)
Marc Meeuwissen, Stefaan Blancke (trombones)
Bart Maris (trumpet)
Luc Van Lieshout (trumpet)
Berlinde Deman (tuba)
Kristof Roseeuw (double bass)
Peter Vandenberghe (keyboards)
Teun Verbruggen (drums)
Pierre Vervloesem (guitar)
Tom Wouters (vibraphone, clarinet)
Wim Willaert (accordion)
Это, в принципе, раскрутка для британских поклонников их альбома "Cheer Me, Perverts!"
Доп. информация: Не удержался...Это свежий бутлег, здесь вердикт TAU: http://i3.fastpic.ru/big/2009/1023/d4/8b5ec73b519630c1a3a51748df9665d4.jpg
Audiochecker у меня стал приводить к зависанию машины.
 
Отчёт EAC
Exact Audio Copy V0.99 prebeta 4 from 23. January 2008
EAC extraction logfile from 23. June 2009, 10:55
Flat Earth Society / Jazz On 3 Session
Used drive : Optiarc DVD RW AD-7200A Adapter: 0 ID: 1
Read mode : Secure
Utilize accurate stream : Yes
Defeat audio cache : Yes
Make use of C2 pointers : No
Read offset correction : 48
Overread into Lead-In and Lead-Out : No
Fill up missing offset samples with silence : Yes
Delete leading and trailing silent blocks : No
Null samples used in CRC calculations : Yes
Used interface : Installed external ASPI interface
Gap handling : Appended to previous track
Used output format : User Defined Encoder
Selected bitrate : 768 kBit/s
Quality : High
Add ID3 tag : No
Command line compressor : C:\Program Files\Exact Audio Copy\flac.exe
Additional command line options : -8 -A tukey(0.25) -A gauss(0.1875) -b 4096 -V -T "artist=%a" -T "title=%t" -T "album=%g" -T "date=%y" -T "tracknumber=%n" -T "genre=%m" %s --sector-align
TOC of the extracted CD
Track | Start | Length | Start sector | End sector
---------------------------------------------------------
1 | 0:00.00 | 5:42.02 | 0 | 25651
2 | 5:42.02 | 4:21.01 | 25652 | 45227
3 | 10:03.03 | 5:03.02 | 45228 | 67954
4 | 15:06.05 | 5:51.02 | 67955 | 94281
5 | 20:57.07 | 7:45.01 | 94282 | 129157
6 | 28:42.08 | 8:19.03 | 129158 | 166585
7 | 37:01.11 | 6:05.03 | 166586 | 193963
8 | 43:06.14 | 4:32.15 | 193964 | 214378
Track 1
Filename H:\WORK\Flat Earth Society - Jazz on 3 Session(2009)\01 - Flat Earth Society - Bad Linen .wav
Pre-gap length 0:00:02.00
Peak level 95.7 %
Track quality 99.9 %
Test CRC E4DBD9FB
Copy CRC E4DBD9FB
Copy OK
Track 2
Filename H:\WORK\Flat Earth Society - Jazz on 3 Session(2009)\02 - Flat Earth Society - Betwixt and Between .wav
Peak level 99.3 %
Track quality 99.9 %
Test CRC B5F3D9ED
Copy CRC B5F3D9ED
Copy OK
Track 3
Filename H:\WORK\Flat Earth Society - Jazz on 3 Session(2009)\03 - Flat Earth Society - Kotopoulopology .wav
Pre-gap length 0:00:00.01
Peak level 94.4 %
Track quality 100.0 %
Test CRC 011DD832
Copy CRC 011DD832
Copy OK
Track 4
Filename H:\WORK\Flat Earth Society - Jazz on 3 Session(2009)\04 - Flat Earth Society - Miss Possible .wav
Peak level 96.6 %
Track quality 100.0 %
Test CRC 1F4EAEC2
Copy CRC 1F4EAEC2
Copy OK
Track 5
Filename H:\WORK\Flat Earth Society - Jazz on 3 Session(2009)\05 - Flat Earth Society - Mutt .wav
Peak level 99.4 %
Track quality 100.0 %
Test CRC 069DDABC
Copy CRC 069DDABC
Copy OK
Track 6
Filename H:\WORK\Flat Earth Society - Jazz on 3 Session(2009)\06 - Flat Earth Society - Rearm, Get That Char! .wav
Peak level 90.9 %
Track quality 100.0 %
Test CRC 4CE8DFA9
Copy CRC 4CE8DFA9
Copy OK
Track 7
Filename H:\WORK\Flat Earth Society - Jazz on 3 Session(2009)\07 - Flat Earth Society - Smoke On Fire .wav
Peak level 95.9 %
Track quality 100.0 %
Test CRC 11DFE881
Copy CRC 11DFE881
Copy OK
Track 8
Filename H:\WORK\Flat Earth Society - Jazz on 3 Session(2009)\08 - Flat Earth Society - Vole Sperm Reverie .wav
Peak level 96.8 %
Track quality 100.0 %
Test CRC 4876DEFD
Copy CRC 4876DEFD
Copy OK
No errors occurred
End of status report
Any questions -> support@pro-jazz.com. По всем вопросам пишите -> support@pro-jazz.com
11:41
167
Нет комментариев. Ваш будет первым!